<?xml version="1.0" standalone="no"?>
<!DOCTYPE svg PUBLIC "-//W3C//DTD SVG 1.1//EN" "http://www.w3.org/Graphics/SVG/1.1/DTD/svg11.dtd" >
<svg xmlns="http://www.w3.org/2000/svg">
  <metadata>Created by iconfont</metadata>
  <defs>
  <font id="iconfont" horiz-adv-x="1024">
    <font-face
      font-family="iconfont"
      font-weight="400"
      font-stretch="normal"
      units-per-em="1024"
      ascent="896"
      descent="-128"
    />
      <missing-glyph />
      
      <glyph glyph-name="remen" unicode="&#59593;" d="M423.477333-42.666667S45.045333 40.576 214.186667 453.717333c0 0 38.4-45.909333 33.12-68 0 0 30.101333 104.277333 95.072 166.570667C398.165333 605.813333 454.848 756.288 402.570667 810.666667c0 0 258.933333-54.378667 287.754666-326.378667 0 0 33.12 86.666667 101.12 95.232 0 0-20.906667-47.616 0-119.04 0 0 214.485333-367.146667-155.157333-491.242667 0 0 110.805333 125.813333-124.181333 341.717334 0 0-55.402667-115.626667-88.533334-156.373334-0.096-0.106667-92.522667-103.722667-0.096-197.248z"  horiz-adv-x="1024" />
      
      <glyph glyph-name="lichengbiao" unicode="&#59163;" d="M512 482.304c-16.384 0-29.184 13.312-29.184 29.184L482.816 614.4c0 16.384 13.312 29.184 29.184 29.184s29.184-13.312 29.184-29.184l0-102.4C541.184 495.616 528.384 482.304 512 482.304zM280.064 208.896l-102.4 0c-16.384 0-29.184 13.312-29.184 29.184 0 16.384 13.312 29.184 29.184 29.184l102.4 0c16.384 0 29.184-13.312 29.184-29.184C309.248 222.208 295.936 208.896 280.064 208.896zM341.504 395.264c-7.68 0-14.848 3.072-20.48 8.704L247.808 476.16c-11.264 11.264-11.264 30.208 0 41.472 11.264 11.264 30.208 11.264 41.472 0L361.984 445.44c11.264-11.264 11.264-30.208 0-41.472C356.352 397.824 348.672 395.264 341.504 395.264zM503.296 191.488c-7.68 0-15.36 3.072-20.992 9.216-11.264 11.776-10.752 30.208 1.024 41.472l289.28 275.968c11.776 11.264 30.208 10.752 41.472-1.024 11.264-11.776 10.752-30.208-1.024-41.472L523.264 199.68C517.632 194.56 510.464 191.488 503.296 191.488zM846.336 208.896l-102.4 0c-16.384 0-29.184 13.312-29.184 29.184 0 16.384 13.312 29.184 29.184 29.184l102.4 0c16.384 0 29.184-13.312 29.184-29.184C876.032 222.208 862.72 208.896 846.336 208.896zM929.28 256c-16.384 0-29.184 13.312-29.184 29.184 0 214.016-174.08 388.096-388.096 388.096s-388.096-174.08-388.096-388.096c0-16.384-13.312-29.184-29.184-29.184s-29.184 13.312-29.184 29.184C65.024 531.456 265.728 732.16 512 732.16s446.976-200.704 446.976-446.976C958.976 268.8 945.664 256 929.28 256zM94.72 35.84c-16.384 0-29.184 13.312-29.184 29.184l0 219.648c0 16.384 13.312 29.184 29.184 29.184s29.184-13.312 29.184-29.184l0-219.648C123.904 49.152 110.592 35.84 94.72 35.84zM929.28 35.84c-16.384 0-29.184 13.312-29.184 29.184l0 219.648c0 16.384 13.312 29.184 29.184 29.184 16.384 0 29.184-13.312 29.184-29.184l0-219.648C958.976 49.152 945.664 35.84 929.28 35.84zM929.28 35.84 94.72 35.84c-16.384 0-29.184 13.312-29.184 29.184s13.312 29.184 29.184 29.184l835.072 0c16.384 0 29.184-13.312 29.184-29.184S945.664 35.84 929.28 35.84z"  horiz-adv-x="1024" />
      
      <glyph glyph-name="biansuxiangyou" unicode="&#58884;" d="M430.08 622.08H245.76v39.68c0 29.44 24.32 52.48 52.48 52.48h78.08c29.44 0 52.48-24.32 52.48-52.48v-39.68z m-145.92 38.4h107.52v1.28c0 7.68-6.4 14.08-14.08 14.08h-78.08c-7.68 0-14.08-6.4-14.08-14.08v-1.28zM715.52 53.76H308.48c-34.56 0-61.44 28.16-61.44 61.44V616.96h184.32v-34.56l39.68 44.8c16.64 19.2 42.24 25.6 66.56 16.64l202.24-71.68c24.32-8.96 40.96-32 40.96-57.6V115.2c-2.56-34.56-30.72-61.44-65.28-61.44z m-431.36 524.8V115.2c0-12.8 10.24-23.04 23.04-23.04h408.32c12.8 0 23.04 10.24 23.04 23.04V515.84c0 10.24-6.4 17.92-15.36 21.76l-202.24 71.68c-8.96 2.56-17.92 0-24.32-6.4L439.04 537.6c-7.68-8.96-19.2-11.52-30.72-7.68-11.52 3.84-17.92 14.08-17.92 25.6v24.32h-106.24zM663.04 404.48c-3.84 0-7.68 1.28-11.52 2.56l-153.6 70.4c-7.68 3.84-12.8 10.24-15.36 16.64-2.56 7.68-1.28 15.36 2.56 23.04l23.04 40.96c6.4 11.52 20.48 16.64 33.28 12.8l130.56-43.52c11.52-3.84 19.2-14.08 19.2-26.88v-67.84c0-10.24-5.12-19.2-12.8-24.32-5.12-2.56-10.24-3.84-15.36-3.84z m-139.52 103.68L652.8 449.28v44.8l-115.2 38.4-14.08-24.32zM514.56 157.44h-29.44c-2.56 0-5.12 1.28-7.68 2.56-2.56 1.28-3.84 5.12-3.84 7.68l-2.56 20.48c-2.56 1.28-3.84 1.28-5.12 2.56l-15.36-11.52c-3.84-2.56-10.24-3.84-15.36 1.28-11.52 10.24-19.2 17.92-23.04 23.04-1.28 2.56-2.56 3.84-2.56 6.4s1.28 5.12 2.56 6.4c1.28 2.56 3.84 5.12 7.68 8.96 1.28 2.56 3.84 3.84 5.12 6.4-1.28 2.56-2.56 5.12-2.56 6.4l-20.48 2.56c-2.56 0-5.12 1.28-6.4 3.84-1.28 2.56-2.56 5.12-2.56 7.68V281.6c0 2.56 1.28 5.12 2.56 6.4 2.56 2.56 5.12 3.84 6.4 3.84l21.76 3.84c1.28 2.56 1.28 3.84 2.56 6.4-2.56 3.84-7.68 8.96-11.52 15.36-2.56 2.56-2.56 5.12-2.56 7.68 0 2.56 1.28 5.12 2.56 6.4 2.56 3.84 7.68 8.96 14.08 15.36 10.24 10.24 14.08 11.52 16.64 11.52 2.56 0 5.12-1.28 7.68-2.56l15.36-11.52c1.28 1.28 3.84 1.28 5.12 2.56 1.28 10.24 2.56 17.92 3.84 21.76 1.28 5.12 5.12 8.96 11.52 8.96h29.44c2.56 0 5.12-1.28 7.68-2.56 2.56-1.28 3.84-5.12 3.84-7.68l2.56-20.48c2.56-1.28 3.84-1.28 5.12-2.56l16.64 11.52c1.28 1.28 3.84 2.56 7.68 2.56 2.56 0 5.12-1.28 7.68-2.56 12.8-11.52 20.48-19.2 23.04-24.32 1.28-1.28 2.56-2.56 2.56-6.4 0-2.56-1.28-5.12-2.56-6.4-1.28-1.28-3.84-5.12-7.68-8.96-1.28-2.56-3.84-3.84-5.12-6.4 1.28-2.56 2.56-5.12 2.56-6.4l20.48-3.84c2.56 0 5.12-1.28 6.4-3.84 1.28-2.56 2.56-5.12 2.56-7.68v-29.44c0-2.56-1.28-5.12-2.56-6.4-1.28-2.56-3.84-3.84-6.4-3.84l-21.76-3.84c-1.28-2.56-1.28-3.84-2.56-6.4 2.56-3.84 6.4-8.96 11.52-15.36 1.28-2.56 2.56-5.12 2.56-7.68 0-2.56-1.28-5.12-2.56-7.68-2.56-2.56-6.4-7.68-14.08-15.36-10.24-8.96-14.08-11.52-16.64-11.52-2.56 0-5.12 1.28-6.4 2.56l-15.36 12.8c-1.28-1.28-3.84-1.28-5.12-2.56-1.28-10.24-2.56-17.92-3.84-21.76-3.84-3.84-7.68-7.68-14.08-7.68z m-51.2 47.36l3.84-1.28c3.84-1.28 7.68-3.84 11.52-5.12l3.84-1.28 3.84-28.16h28.16c1.28 5.12 2.56 12.8 3.84 23.04v3.84l3.84 1.28c3.84 1.28 7.68 2.56 11.52 5.12l3.84 1.28 21.76-16.64c1.28 1.28 3.84 2.56 8.96 7.68 6.4 5.12 10.24 10.24 12.8 12.8-6.4 7.68-11.52 14.08-14.08 17.92l-2.56 3.84 1.28 3.84c1.28 2.56 3.84 6.4 5.12 11.52l1.28 3.84 26.88 3.84v28.16l-26.88 3.84-1.28 3.84c-1.28 3.84-2.56 7.68-5.12 12.8l-1.28 3.84 2.56 3.84c1.28 2.56 3.84 5.12 7.68 10.24 2.56 3.84 5.12 6.4 6.4 7.68-2.56 3.84-7.68 8.96-20.48 20.48l-21.76-16.64-3.84 1.28c-3.84 1.28-7.68 3.84-11.52 5.12l-3.84 1.28-3.84 28.16h-28.16c-1.28-5.12-2.56-12.8-3.84-23.04v-3.84l-3.84-1.28c-3.84-1.28-7.68-2.56-11.52-5.12l-3.84-1.28-21.76 16.64c-1.28-1.28-3.84-2.56-8.96-7.68-6.4-5.12-10.24-10.24-11.52-12.8 6.4-7.68 10.24-12.8 14.08-17.92l2.56-3.84-3.84-5.12c-2.56-3.84-3.84-7.68-5.12-11.52l-1.28-3.84-26.88-3.84v-28.16l26.88-3.84 1.28-3.84c1.28-3.84 2.56-7.68 5.12-11.52l1.28-3.84-1.28-2.56c-1.28-2.56-3.84-5.12-7.68-10.24-2.56-3.84-5.12-6.4-6.4-8.96 2.56-1.28 7.68-7.68 20.48-19.2l21.76 15.36z m35.84 21.76c-11.52 0-20.48 3.84-29.44 11.52-7.68 7.68-11.52 17.92-11.52 29.44 0 11.52 3.84 20.48 11.52 29.44s17.92 11.52 29.44 11.52 20.48-3.84 29.44-11.52 11.52-17.92 11.52-29.44-3.84-20.48-11.52-29.44c-7.68-7.68-17.92-11.52-29.44-11.52z m0 69.12c-7.68 0-14.08-2.56-20.48-7.68-5.12-5.12-7.68-11.52-7.68-20.48 0-7.68 2.56-14.08 7.68-20.48 5.12-5.12 11.52-7.68 20.48-7.68s14.08 2.56 20.48 7.68c5.12 5.12 7.68 11.52 7.68 20.48 0 7.68-2.56 14.08-7.68 20.48s-11.52 7.68-20.48 7.68z"  horiz-adv-x="1024" />
      
      <glyph glyph-name="rili" unicode="&#58886;" d="M846.229 799.904h-73.984v45.04c0 16.61 0.536 30.041-16.053 30.041-16.611 0-18.244-13.431-18.244-30.041v-45.04h-88.231v45.04c0 16.61 2.986 30.041-13.624 30.041-16.568 0-18.975-13.431-18.975-30.041v-45.04h-84.88v45.04c0 16.61 0.388 30.041-16.202 30.041-16.589 0-17.536-13.431-17.536-30.041v-45.04h-84.858v45.04c0 16.61-1.053 30.041-17.664 30.041-16.589 0-16.632-13.431-16.632-30.041v-45.04H292.79v45.04c0 16.61-0.279 30.041-16.869 30.041s-18.544-13.431-18.544-30.041v-45.04h-71.493c-66.335 0-120.079-53.722-120.079-120.035v-660.344c0-66.314 53.743-120.101 120.079-120.101h660.345c66.292 0 120.057 53.786 120.057 120.101V679.869c-0.001 66.314-53.765 120.035-120.057 120.035z m82.515-782.936c0-35.07-45.04-79.959-80.044-79.959H183.197c-35.026 0-79.852 45.255-79.852 80.323V685.306c0 35.026 39.475 77.058 74.501 77.058h78.047v-48.177c0-17.492 2.084-31.696 19.598-31.696 17.556 0 17.857 14.204 17.857 31.696v48.177h84.88v-48.177c0-17.492 0.043-31.696 17.578-31.696 17.556 0 18.674 14.204 18.674 31.696v48.177h83.01v-48.177c0-17.492 1.01-31.696 18.545-31.696 17.533 0 17.126 14.204 17.126 31.696v48.177h83.956v-48.177c0-17.492 2.536-31.696 20.07-31.696 17.535 0 14.376 14.204 14.376 31.696v48.177h87.522v-48.177c0-17.492 1.72-31.696 19.275-31.696 17.535 0 16.977 14.204 16.977 31.696v48.177h74.866c35.005 0 78.54-40.721 78.54-75.769v-669.627zM190.095 552.721v-525.052h652.437V552.721H190.095z m154.461-29.397h94.098v-94.076h-94.098v94.076z m-0.086-124.354h94.27v-94.27h-94.27v94.27zM219.298 524.163h95.753v-95.754h-95.753v95.754z m95.754-469.074h-95.753v95.774h95.753v-95.774z m0 124.461h-95.753v95.711h95.753v-95.711z m0.429 124.011h-96.613v96.592h96.613v-96.592z m123.367-247.829h-94.486v94.465h94.486v-94.465z m0 124.463h-94.486v94.442h94.486v-94.442z m124.506-124.548h-94.615v94.657h94.615v-94.657z m0 124.461h-94.615v94.594h94.615v-94.594z m0 124.42h-94.615v94.635h94.615v-94.635z m0.042 124.397h-94.722v94.722h94.722v-94.722z m124.375-373.257h-94.593v94.614h94.593v-94.614z m0 124.462h-94.593v94.572h94.593v-94.572z m0 124.419h-94.593v94.593h94.593v-94.593z m0 124.44h-94.593v94.593h94.593v-94.593z m124.054-372.956h-93.884v93.885h93.884v-93.885z m0 124.442h-93.884v93.861h93.884v-93.861z m0 124.418h-93.884v93.905h93.884v-93.905z m0 124.44h-93.884v93.884h93.884v-93.884z"  horiz-adv-x="1024" />
      
      <glyph glyph-name="Fuel" unicode="&#59164;" d="M684.373333-59.733333a17.066667 17.066667 0 0 0-17.066666 17.066666V210.773333c0 0.7168 0.0512 1.4336 0.136533 2.133334a17.681067 17.681067 0 0 0-0.136533 2.133333v38.4l0.017066 0.5632L667.306667 725.333333c0 47.223467-21.0432 68.266667-68.266667 68.266667h-341.333333c-47.223467 0-68.266667-21.0432-68.266667-68.266667v-768a17.066667 17.066667 0 1 0-34.133333 0V725.333333c0 66.030933 36.369067 102.4 102.4 102.4h341.333333c66.030933 0 102.4-36.369067 102.4-102.4v-68.266666h68.266667a17.066667 17.066667 0 1 0 0-34.133334h-68.266667v-369.493333c1.006933-29.934933 11.9296-55.1936 33.399467-76.663467 21.333333-21.316267 46.421333-31.675733 76.680533-31.675733s55.3472 10.359467 76.680533 31.675733c21.333333 21.333333 31.6928 46.421333 31.6928 76.663467 0 14.199467-2.474667 27.579733-7.3216 39.765333a169.864533 169.864533 0 0 1-19.370666 35.6352l-137.915734 216.661334a17.066667 17.066667 0 1 0 28.808534 18.3296l137.403733-215.893334c8.7552-12.202667 16.5888-26.606933 22.784-42.069333 6.468267-16.247467 9.745067-33.877333 9.745067-52.4288 0-39.2192-14.0288-73.130667-41.693867-100.795733-27.682133-27.665067-61.5936-41.6768-100.8128-41.6768s-73.130667 14.011733-100.8128 41.6768a160.034133 160.034133 0 0 0-9.2672 10.0864V-42.666667a17.066667 17.066667 0 0 0-17.066667-17.066666z m-85.333333 512h-341.333333a17.066667 17.066667 0 0 0-17.066667 17.066666V725.333333a17.066667 17.066667 0 0 0 17.066667 17.066667h341.333333a17.066667 17.066667 0 0 0 17.066667-17.066667v-256a17.066667 17.066667 0 0 0-17.066667-17.066666z m-324.266667 34.133333h307.2V708.266667h-307.2v-221.866667zM769.706667-76.8h-682.666667a34.133333 34.133333 0 0 0 0 68.266667h682.666667a34.133333 34.133333 0 0 0 0-68.266667z m0 597.333333a34.133333 34.133333 0 0 0-34.133334 34.133334V725.333333a34.133333 34.133333 0 0 0 68.266667 0v-170.666666a34.133333 34.133333 0 0 0-34.133333-34.133334z"  horiz-adv-x="1024" />
      
      <glyph glyph-name="daifukuan" unicode="&#58970;" d="M455.714747-21.653206 183.338922-21.653206c-42.462275 0-76.992128 35.073533-76.992128 78.569006L106.346794 711.0842c0 43.451529 34.554379 78.569006 76.938986 78.569006l433.618012 0c42.414244 0 76.938986-35.110323 76.938986-78.600687l0-203.999808c0-11.58796 9.39382-20.98178 20.98178-20.98178 11.58796 0 20.98178 9.39382 20.98178 20.98178L735.806339 711.052519C735.808383 777.562443 682.654403 831.616766 616.904814 831.616766L183.286802 831.616766C117.57196 831.616766 64.383234 777.560399 64.383234 711.0842l0-654.167377C64.383234-9.609453 117.551521-63.616766 183.338922-63.616766l272.374802 0c11.58796 0 20.98178 9.39382 20.98178 20.98178C476.696527-31.047026 467.302707-21.653206 455.714747-21.653206zM595.928144 663.760479l-391.664671 0c-11.58796 0-20.98178-9.39382-20.98178-20.98178 0-11.58796 9.39382-20.98178 20.98178-20.98178l391.664671 0c11.58796 0 20.98178 9.39382 20.98178 20.98178C616.909924 654.366659 607.516104 663.760479 595.928144 663.760479zM616.909924 488.909924c0 11.58796-9.39382 20.98178-20.98178 20.98178l-391.664671 0c-11.58796 0-20.98178-9.39382-20.98178-20.98178 0-11.58796 9.39382-20.98178 20.98178-20.98178l391.664671 0C607.516104 467.928144 616.909924 477.321964 616.909924 488.909924zM204.263473 356.023952c-11.58796 0-20.98178-9.39382-20.98178-20.98178 0-11.58796 9.39382-20.98178 20.98178-20.98178l223.808383 0c11.58796 0 20.98178 9.39382 20.98178 20.98178 0 11.58796-9.39382 20.98178-20.98178 20.98178L204.263473 356.023952zM714.826603 425.963561c-135.193549 0-244.790164-109.596615-244.790164-244.790164S579.632032-63.616766 714.826603-63.616766 959.616766 45.979848 959.616766 181.173397 850.020152 425.963561 714.826603 425.963561zM793.180998 123.305134c-3.715832-7.048431-9.17921-13.214914-16.392176-18.501493s-16.119313-9.505214-26.719042-12.65897c-3.574802-1.062834-7.328447-1.946826-11.264-2.651976l0-20.224511-47.958355 0 0 19.935297c-6.64578 1.038307-13.350834 2.528319-20.116184 4.471058-14.534259 4.172647-27.811513 10.711122-39.832782 19.614403l32.128255 32.829317c8.086739-5.193581 16.665038-9.413238 25.73592-12.65897 9.06986-3.245733 17.758531-4.868599 26.063968-4.868599 9.835305 0 16.665038 1.11291 20.49022 3.338731 3.825182 2.22582 5.737261 5.378555 5.737261 9.459226 0 2.22582-0.656096 4.080671-1.967265 5.564551-1.31117 1.48388-3.278435 2.874762-5.900774 4.173669-2.622339 1.297884-5.846611 2.54978-9.671792 3.755689-3.825182 1.205908-8.250251 2.550802-13.277253 4.033661l-26.555529 9.459226c-6.119473 1.85485-11.91192 4.312655-17.376319 7.372391-5.464399 3.060758-10.217517 6.677461-14.261397 10.850108-4.04388 4.173669-7.26713 8.949269-9.671792 14.327824-2.404663 5.378555-3.606483 11.314076-3.606483 17.805541 0 7.790371 1.967265 15.069764 5.900774 21.839202 3.934531 6.769437 9.453094 12.704958 16.555689 17.805541 7.103617 5.100583 15.627752 9.134244 25.571385 12.102004 1.329565 0.396519 2.680591 0.767489 4.051034 1.110866l0 21.486627 47.958355 0 0-19.564327c6.432192-0.973924 12.864383-2.448607 19.296575-4.42507 12.676343-3.894675 24.260216-10.01517 34.751617-18.362507l-28.194747-30.046531c-7.649341 4.265645-14.862307 7.511377-21.637876 9.737198-6.775569 2.22582-14.42491 3.338731-22.949046 3.338731-16.173477 0-24.260216-4.080671-24.260216-12.24099 0-4.265645 2.896224-7.511377 8.687649-9.737198 5.791425-2.22582 14.042699-5.007585 24.751776-8.346315l24.588263-8.624287c14.42491-4.451641 25.517222-10.665134 33.275912-18.640479 7.758691-7.975345 11.638036-18.269509 11.638036-30.881469C798.754747 137.679968 796.89683 130.353565 793.180998 123.305134zM910.658938 163.68875c-5.794491 0-10.491401 4.69691-10.491401 10.491401 0 106.22416-86.111042 192.335202-192.335202 192.335202-5.793469 0-10.491401 4.69691-10.491401 10.491401 0 5.794491 4.69691 10.491401 10.491401 10.491401 117.81212 0 213.316982-95.505884 213.316982-213.316982C921.149317 168.385661 916.452407 163.68875 910.658938 163.68875z"  horiz-adv-x="1024" />
      
      <glyph glyph-name="yunshu-" unicode="&#61042;" d="M660 700.8H359.2c-8.8 0-16 7.2-16 16V872c0 8.8 7.2 16 16 16h300c8.8 0 16-7.2 16-16v-156c0.8-8-6.4-15.2-15.2-15.2z m-284.8 32h268V856H375.2v-123.2zM1001.6-120c-4 0-8 1.6-11.2 4.8l-45.6 45.6c-26.4 26.4-68.8 26.4-94.4 0-18.4-18.4-43.2-28.8-69.6-28.8-26.4 0-51.2 10.4-69.6 28.8-12.8 12.8-29.6 20-47.2 20s-34.4-7.2-47.2-20c-38.4-38.4-101.6-38.4-140 0-12.8 12.8-29.6 20-47.2 20s-34.4-7.2-47.2-20c-38.4-38.4-101.6-38.4-140 0-12.8 12.8-29.6 20-47.2 20s-34.4-7.2-47.2-20c-38.4-38.4-101.6-38.4-140 0l22.4 22.4c12.8-12.8 29.6-20 47.2-20s34.4 7.2 47.2 20c38.4 38.4 101.6 38.4 140 0 12.8-12.8 29.6-20 47.2-20s34.4 7.2 47.2 20c38.4 38.4 101.6 38.4 140 0 26.4-26.4 68.8-26.4 94.4 0 38.4 38.4 101.6 38.4 140 0 12.8-12.8 29.6-20 47.2-20s34.4 7.2 47.2 20c38.4 38.4 101.6 38.4 140 0l45.6-45.6c6.4-6.4 6.4-16 0-22.4-4-3.2-8-4.8-12-4.8zM545.6-99.2c-25.6 0-50.4 9.6-69.6 28.8-12.8 12.8-29.6 20-47.2 20s-34.4-7.2-47.2-20c-6.4-6.4-14.4-12-22.4-16.8-5.6-3.2-12.8-2.4-18.4 1.6-151.2 130.4-257.6 309.6-300 504-1.6 8.8 3.2 16.8 12 19.2l453.6 101.6c2.4 0.8 4.8 0.8 7.2 0l453.6-101.6c8.8-1.6 14.4-10.4 12-19.2-40-181.6-132.8-344.8-267.2-473.6-4.8-4.8-12-5.6-18.4-2.4-25.6 13.6-57.6 8.8-78.4-12-19.2-20-44-29.6-69.6-29.6z m-117.6 80.8c26.4 0 51.2-10.4 69.6-28.8 26.4-26.4 68.8-26.4 94.4 0 28 28 68.8 36 104.8 22.4 121.6 119.2 206.4 268.8 246.4 434.4L509.6 507.2 75.2 409.6C117.6 232 216 68.8 352-52.8c2.4 1.6 4 3.2 6.4 5.6 18.4 18.4 43.2 28.8 69.6 28.8zM797.6 442.4h-3.2l-284.8 64-284.8-64c-4.8-0.8-9.6 0-13.6 3.2s-6.4 8-6.4 12.8V716.8c0 8.8 7.2 16 16 16h576c8.8 0 16-7.2 16-16v-257.6c0-4.8-2.4-9.6-6.4-12.8-1.6-2.4-5.6-4-8.8-4z m-288 96.8h3.2l268.8-60V700.8h-544v-221.6l268.8 60h3.2zM509.6-85.6c-4.8 0-8 3.2-8 8V523.2c0 4.8 3.2 8 8 8s8-3.2 8-8v-600.8c0-4-3.2-8-8-8zM303.2 610.4c-4.8 0-8 3.2-8 8v24.8c0 4.8 3.2 8 8 8s8-3.2 8-8v-24.8c0-4.8-3.2-8-8-8zM372 610.4c-4.8 0-8 3.2-8 8v24.8c0 4.8 3.2 8 8 8s8-3.2 8-8v-24.8c0-4.8-3.2-8-8-8zM440.8 610.4c-4.8 0-8 3.2-8 8v24.8c0 4.8 3.2 8 8 8s8-3.2 8-8v-24.8c0-4.8-3.2-8-8-8zM509.6 610.4c-4.8 0-8 3.2-8 8v24.8c0 4.8 3.2 8 8 8s8-3.2 8-8v-24.8c0-4.8-3.2-8-8-8zM578.4 610.4c-4.8 0-8 3.2-8 8v24.8c0 4.8 3.2 8 8 8s8-3.2 8-8v-24.8c0-4.8-3.2-8-8-8zM647.2 610.4c-4.8 0-8 3.2-8 8v24.8c0 4.8 3.2 8 8 8s8-3.2 8-8v-24.8c0-4.8-3.2-8-8-8zM716 610.4c-4.8 0-8 3.2-8 8v24.8c0 4.8 3.2 8 8 8s8-3.2 8-8v-24.8c0-4.8-3.2-8-8-8zM440.8 773.6c-4.8 0-8 3.2-8 8v24.8c0 4.8 3.2 8 8 8s8-3.2 8-8v-24.8c0-4-3.2-8-8-8zM509.6 773.6c-4.8 0-8 3.2-8 8v24.8c0 4.8 3.2 8 8 8s8-3.2 8-8v-24.8c0-4-3.2-8-8-8zM578.4 773.6c-4.8 0-8 3.2-8 8v24.8c0 4.8 3.2 8 8 8s8-3.2 8-8v-24.8c0-4-3.2-8-8-8z"  horiz-adv-x="1024" />
      
      <glyph glyph-name="xunjia" unicode="&#58967;" d="M512.534528 896C230.48192 896 0.91136 692.256768 0.91136 442.005504c0-248.662016 213.22752-409.255936 408.229888-444.448768l74.637312-108.2368c6.914048-10.26048 17.75616-15.208448 28.60032-15.208448a34.80576 34.80576 0 0 1 28.75392 15.208448l74.635264 108.414976C810.770432 32.929792 1024 193.51552 1024 442.179584 1024.157696 692.256768 794.587136 896 512.534528 896z m318.732288-687.136768c-61.083648-59.478016-145.369088-102.617088-230.848512-117.956608-16.77312-3.03104-32.043008-13.135872-42.371072-28.30336l-45.357056-65.718272-45.512704 65.718272c-10.479616 15.167488-25.595904 25.27232-42.364928 28.30336-85.633024 15.509504-169.76896 58.478592-230.848512 118.124544-46.40768 45.1584-101.650432 121.821184-101.650432 230.844416 0 91.83232 41.619456 179.286016 117.37088 246.515712 80.392192 71.274496 188.033024 110.70464 302.854144 110.70464 114.976768 0 222.613504-39.262208 303.01184-110.70464 75.74528-67.229696 117.364736-154.683392 117.364736-246.515712-0.155648-109.187072-55.246848-185.851904-101.648384-231.012352zM536.932352 716.541952l61.374464-8.31488-11.309056-56.889344a1055.944704 1055.944704 0 0 0 44.335104-4.1984c14.848-1.726464 28.633088-3.770368 41.35936-6.135808l-8.976384-48.052224c-15.560704 3.012608-22.274048 3.917824-38.109184 6.07232a732.48768 732.48768 0 0 1-46.671872 4.845568l-24.184832-138.211328a1173.79072 1173.79072 0 0 0 56.430592-18.243584c18.663424-6.569984 35.426304-14.321664 50.272256-23.248896 14.852096-8.937472 26.867712-19.53792 36.063232-31.811584 9.187328-12.269568 13.787136-26.912768 13.787136-43.917312 0-18.081792-4.814848-34.117632-14.430208-48.111616-9.613312-14.000128-23.05024-25.83552-40.298496-35.520512-17.256448-9.691136-38.045696-17.278976-62.369792-22.767616-24.328192-5.492736-51.050496-8.77568-81.156096-15.18592l-11.061248-62.347264-61.66528 9.74848 11.757568 57.939968c-22.908928 1.29024-44.75904 3.170304-65.548288 5.65248-20.785152 2.469888-38.81984 5.210112-54.091776 8.230912l9.64608 51.17952c17.8176-4.737024 27.615232-6.189056 48.689152-9.201664 21.065728-3.0208 44.474368-5.056512 70.211584-6.131712l25.032704 145.313792a1080.098816 1080.098816 0 0 0-54.304768 17.43872c-17.819648 6.240256-33.73056 13.7216-47.730688 22.441984-13.99808 8.716288-25.387008 18.9952-34.152448 30.838784-8.769536 11.83744-13.150208 25.939968-13.150208 42.30144 0 13.344768 3.670016 26.529792 11.02848 39.555072 7.35232 13.023232 18.806784 24.756224 34.36544 35.201024 15.55456 10.438656 35.213312 19.052544 58.97216 25.833472 23.760896 6.785024 52.037632 10.817536 84.854784 12.111872l11.030528 63.584256z m-19.515392-112.0256c-35.35872-2.371584-61.165568-8.667136-77.42464-18.8928-16.267264-10.225664-24.397824-23.304192-24.397824-39.233536 0-14.852096 6.715392-27.07456 20.154368-36.651008 13.426688-9.582592 33.441792-18.356224 60.028928-26.318848l21.639168 121.096192z m5.08928-322.596864c38.187008 2.144256 65.972224 8.609792 83.367936 19.369984 17.395712 10.768384 26.09152 25.403392 26.09152 43.917312 0 7.755776-1.841152 14.696448-5.515264 20.830208-3.682304 6.135808-9.193472 11.675648-16.543744 16.631808-7.36256 4.947968-16.478208 9.576448-27.365376 13.88544-10.887168 4.306944-23.691264 8.607744-38.395904 12.918784l-21.639168-127.553536zM510.068736 152.645632l-81.741824 12.920832 11.544576 56.889344c-18.925568 1.255424-37.20192 2.92864-54.474752 4.990976-20.948992 2.494464-39.39328 5.300224-54.81472 8.3456l-9.91232 1.957888 13.637632 72.368128 10.248192-2.72384c16.98816-4.517888 26.300416-5.935104 47.579136-8.974336 18.219008-2.6112 38.549504-4.503552 60.553216-5.640192l21.87264 126.978048a1095.71072 1095.71072 0 0 0-46.0288 14.993408c-18.41152 6.447104-35.125248 14.313472-49.672192 23.373824-15.026176 9.357312-27.457536 20.604928-36.94592 33.425408-10.113024 13.64992-15.243264 30.038016-15.243264 48.703488 0 15.187968 4.17792 30.285824 12.417024 44.875776 8.116224 14.379008 20.760576 27.394048 37.576704 38.684672 16.345088 10.971136 37.12 20.097024 61.745152 27.123712 22.396928 6.393856 48.961536 10.45504 79.06304 12.095488l11.302912 65.165312 81.53088-11.044864-11.19232-56.27904a1084.680192 1084.680192 0 0 0 33.318912-3.334144c15.02208-1.748992 29.15328-3.844096 42.01472-6.234112l10.02496-1.86368-12.832768-68.663296-9.74848 1.888256c-15.118336 2.926592-21.536768 3.79904-37.03808 5.912576l-0.54272 0.073728a734.621696 734.621696 0 0 1-37.148672 4.091904l-20.934656-119.640064a1187.831808 1187.831808 0 0 0 48.140288-15.7696c19.21024-6.762496 36.732928-14.86848 52.078592-24.096768 15.898624-9.570304 29.003776-21.153792 38.950912-34.428928 10.563584-14.106624 15.917056-31.053824 15.917056-50.368512 0-20.226048-5.48864-38.469632-16.31232-54.214656-10.452992-15.228928-25.151488-28.225536-43.687936-38.633472-17.999872-10.10688-39.868416-18.108416-64.995328-23.77728-12.578816-2.840576-25.638912-5.076992-39.467008-7.442432-11.323392-1.939456-22.976512-3.936256-35.196928-6.402048l-11.585536-65.327104z m-57.749504 30.291968l41.592832-6.57408 10.52672 59.33056 6.612992 1.409024c15.034368 3.201024 29.028352 5.597184 42.565632 7.91552 13.572096 2.320384 26.390528 4.513792 38.475776 7.245824 23.300096 5.255168 43.399168 12.57472 59.746304 21.755904 15.824896 8.88832 28.239872 19.789824 36.902912 32.403456 8.448 12.292096 12.55424 26.03008 12.55424 42.012672 0 14.733312-3.815424 26.99264-11.661312 37.470208-8.351744 11.149312-19.515392 20.97152-33.173504 29.192192-14.206976 8.542208-30.5152 16.078848-48.47616 22.401024a1169.12128 1169.12128 0 0 1-55.957504 18.092032l-8.759296 2.59072 27.428864 156.758016 8.916992-0.630784a746.686464 746.686464 0 0 0 47.286272-4.907008l0.546816-0.073728c11.819008-1.611776 18.712576-2.547712 28.33408-4.265984l5.12 27.40224a645.218304 645.218304 0 0 1-30.670848 4.276224 1050.673152 1050.673152 0 0 1-43.933696 4.159488l-11.429888 0.83968 11.446272 57.561088-41.220096 5.584896-10.770432-62.072832-8.040448-0.315392c-31.901696-1.257472-59.68896-5.210112-82.589696-11.747328-22.66112-6.467584-41.570304-14.723072-56.199168-24.541184-14.157824-9.504768-24.639488-20.176896-31.152128-31.71328-6.397952-11.32544-9.639936-22.84544-9.639936-34.240512 0-14.114816 3.61472-25.856 11.053056-35.895296 7.950336-10.743808 18.501632-20.248576 31.361024-28.256256 13.320192-8.298496 28.725248-15.53408 45.787136-21.508096a1075.253248 1075.253248 0 0 1 53.819392-17.283072l8.767488-2.564096-28.188672-163.643392-8.710144 0.362496c-25.997312 1.087488-49.944576 3.18464-71.170048 6.221824-17.526784 2.5088-27.2384 3.956736-39.5264 6.84032l-5.656576-30.021632c12.756992-2.246656 27.312128-4.347904 43.431936-6.264832 20.410368-2.43712 42.262528-4.319232 64.954368-5.599232l11.681792-0.65536-11.986944-59.052032z m58.126336 87.826432l25.767936 151.902208 10.633216-3.117056c14.983168-4.395008 28.186624-8.83712 39.235584-13.207552 11.474944-4.540416 21.30944-9.541632 29.2352-14.870528 8.568832-5.77536 15.161344-12.457984 19.6096-19.869696 4.675584-7.809024 7.04512-16.683008 7.04512-26.392576 0-22.382592-10.428416-40.187904-31.000576-52.918272-18.991104-11.753472-47.753216-18.563072-87.932928-20.815872l-12.593152-0.710656z m41.613312 125.41952l-17.457152-102.912c29.929472 2.637824 52.156416 8.349696 66.177024 17.025024 14.249984 8.820736 21.178368 20.242432 21.178368 34.914304 0 5.801984-1.308672 10.797056-3.989504 15.280128-2.875392 4.788224-7.41376 9.293824-13.48608 13.389824-6.739968 4.530176-15.316992 8.869888-25.481216 12.89216-7.841792 3.094528-16.871424 6.250496-26.94144 9.41056z m-48.457728 74.010624l-10.579968 3.168256c-27.88352 8.349696-48.463872 17.422336-62.916608 27.734016-16.269312 11.595776-24.520704 26.834944-24.520704 45.293568 0 19.781632 9.84064 35.997696 29.247488 48.197632 17.813504 11.20256 44.619776 17.864704 81.944576 20.369408l12.845056 0.862208-26.01984-145.625088z m1.568768 122.793984c-27.029504-2.781184-47.18592-8.259584-60.018688-16.328704-13.152256-8.269824-19.546112-18.171904-19.546112-30.26944 0-11.433984 5.015552-20.334592 15.783936-28.008448 10.696704-7.634944 26.339328-14.876672 46.594048-21.583872l17.186816 96.190464z"  horiz-adv-x="1024" />
      
      <glyph glyph-name="yishouhuo" unicode="&#58968;" d="M88 612a32 32 0 0 0 32 32h784a32 32 0 0 0 32-32v-536a96 96 0 0 0-96-96h-656a96 96 0 0 0-96 96v536z m64-32v-504a32 32 0 0 1 32-32h656a32 32 0 0 1 32 32v504h-720zM155.808 735.776A98.048 98.048 0 0 0 240.288 784h543.424a98.048 98.048 0 0 0 84.48-48.224l-27.568-16.256 27.568 16.256 63.36-107.52A32 32 0 0 0 904 580h-784a32 32 0 0 0-27.568 48.256l63.376 107.52z m84.48-15.776c-12.096 0-23.248-6.384-29.344-16.736l-34.928-59.264h671.968l-34.928 59.264A34.048 34.048 0 0 1 783.712 720H240.288zM792.64 366.624a32 32 0 0 0 0-45.248L585.2 113.952a64 64 0 0 0-90.512 0l-85.328 85.328a32 32 0 1 0 45.248 45.264l85.328-85.328 207.424 207.408a32 32 0 0 0 45.248 0zM212 476a32 32 0 0 0 32 32h378a32 32 0 1 0 0-64H244a32 32 0 0 0-32 32z m0-148a32 32 0 0 0 32 32h242a32 32 0 1 0 0-64H244a32 32 0 0 0-32 32z"  horiz-adv-x="1024" />
      
      <glyph glyph-name="mianshi" unicode="&#58969;" d="M1008.528 217.456a24.496 24.496 0 0 0-24.48-22.896h-76.72l-3.952-39.52c77.376-3.792 99.44-36.016 100.8-38.72l1.376-2.288v-14.56a26.56 26.56 0 1 0-19.632-1.376v9.952a43.392 43.392 0 0 1-1.6 1.712 62.784 62.784 0 0 1-14.4 10.16 161.328 161.328 0 0 1-68.384 15.648l-3.744-36.368a26.512 26.512 0 1 0-21.232-1.408l-3.776 37.824c-58.512-2.8-79.184-21.696-84.464-27.52v-9.488a26.576 26.576 0 1 0-19.616 0.576v14.848l1.36 2.288c1.328 2.704 23.392 34.928 100.8 38.72l-3.984 39.504h-75.824a24.352 24.352 0 1 0 0 48.72h169.872l10.064 167.632a24.528 24.528 0 0 0 48.96-2.896z m-126.656 379.632a73.056 73.056 0 1 0 78.96 67.296 73.216 73.216 0 0 0-78.96-67.296z m-2.688-13.184c34.544 10.112 74.64-23.6 77.152-75.952a465.12 465.12 0 0 0-31.616-192.304 89.808 89.808 0 0 0-45.056-49.904 40.864 40.864 0 0 0-22.624-6.8h-126.112l-65.088-169.888a40.848 40.848 0 0 0-76.432 28.8l75.2 196.048a40.992 40.992 0 0 0 38.224 26.16h5.44a32.752 32.752 0 0 1 34.624-20.976 174.096 174.096 0 0 1 93.424 41.6 256.224 256.224 0 0 1 68.8 103.088 320.896 320.896 0 0 1 16.48 57.952 32.08 32.08 0 0 1-5.76 24.192 32.576 32.576 0 0 1-21.296 13.056 33.248 33.248 0 0 1-5.264 0.416 32.56 32.56 0 0 1-32.288-27.504 274.16 274.16 0 0 0-27.2-75.472c-2-3.648-4.064-7.104-6.192-10.496a334.192 334.192 0 0 1 2.352 39.76 377.888 377.888 0 0 1-12.928-54.976 142.56 142.56 0 0 0-21.216-22.224 138.896 138.896 0 0 0-5.36-4.176 387.792 387.792 0 0 0-5.472 23.552 579.696 579.696 0 0 0 55.216 120 71.696 71.696 0 0 0 42.976 36.048z m-43.584-130.576a278.4 278.4 0 0 1 27.872 77.6v0.16a26.16 26.16 0 0 0 51.648-8.32 312.592 312.592 0 0 0-16.224-56.656A251.728 251.728 0 0 0 832 365.6a166.896 166.896 0 0 0-89.904-40 26.192 26.192 0 0 0-29.168 22.624 26.032 26.032 0 0 0 22.784 28.96 113.744 113.744 0 0 1 60.416 26.336 172.464 172.464 0 0 1 39.456 49.808z m-159.008-43.472h-109.04v-356.16h-142.832v356.16h-109.024a16.288 16.288 0 0 0-16.352 16.24v2.176a16.288 16.288 0 0 0 16.352 16.24h360.896a16.288 16.288 0 0 0 16.352-16.24v-2.16a16.288 16.288 0 0 0-16.352-16.256z m-289.6 153.088c-90.416-53.792-161.392-65.888-205.44-65.888h-0.256a162.88 162.88 0 0 0-49.936 6.4A25.936 25.936 0 0 0 115.2 536.48a26.208 26.208 0 0 0 33.072 16.128l0.928-0.256c1.2-0.352 3.12-0.768 5.888-1.264a151.28 151.28 0 0 1 26.192-2.064c34.592 0 95.488 9.04 178.864 58.512a26.256 26.256 0 0 0 35.888-8.944 25.872 25.872 0 0 0-9.008-35.648zM185.6 590.864a73.056 73.056 0 1 0 73.6 72.944 73.312 73.312 0 0 0-73.6-72.944zM52.992 410.896l10.08-167.696h169.872a24.352 24.352 0 1 0 0-48.704H157.12l-3.952-39.456c77.392-3.792 99.456-36.016 100.8-38.72l1.36-2.288v-14.912a26.496 26.496 0 1 0-19.616-0.576v9.504a60.16 60.16 0 0 1-1.6 1.712 62.784 62.784 0 0 1-14.4 10.16 161.376 161.376 0 0 1-68.384 15.648l-3.888-37.84a26.56 26.56 0 1 0-21.232 1.472l-3.632 36.352c-58.576-2.752-79.2-21.696-84.48-27.52v-9.952a26.304 26.304 0 0 0-11.52-50.08 26.32 26.32 0 0 0-8.112 51.424v14.56l1.376 2.336c1.328 2.704 23.392 34.928 100.8 38.72l-3.968 39.504H40a24.48 24.48 0 0 0-24.48 22.912L4.032 408a24.528 24.528 0 0 0 48.96 2.896zM390.4 557.376a32.384 32.384 0 0 1 5.76 4.384L441.472 464l-11.888-5.44-44.416 95.744 5.232 3.072zM154.144 259.088c-0.64 0-1.28 0.096-1.92 0.176a81.872 81.872 0 0 0-64 60.8 464.928 464.928 0 0 0-16.592 194.16c6.608 52 49.2 82.576 82.848 69.776a65.856 65.856 0 0 0 13.888-7.248 26.24 26.24 0 0 0 2.752-1.92 70.64 70.64 0 0 0 12.8-12.56l0.32-0.304c2.016-1.872 4.368-3.968 6.944-6.176a217.6 217.6 0 0 0-9.904-0.272 145.216 145.216 0 0 0-25.04 1.968 72 72 0 0 0-5.296 1.12l-0.544 0.16a32.784 32.784 0 0 1-41.344-20.16 32.4 32.4 0 0 1 20.208-41.296 167.408 167.408 0 0 1 52.08-6.736h0.32a333.712 333.712 0 0 1 103.504 18 128.288 128.288 0 0 1 76.384 10.4 26.24 26.24 0 0 0 34.736-12.672 25.904 25.904 0 0 0-12.8-34.496 182.096 182.096 0 0 0-76.4-17.056h-0.144a200.592 200.592 0 0 0-76.432 15.856 418.016 418.016 0 0 0 15.856-42.72q-3.856-19.392-9.504-37.856a356.448 356.448 0 0 1-21.088 31.12A379.104 379.104 0 0 1 201.6 484.8l-1.6 0.896a335.856 335.856 0 0 1 13.232-128 89.904 89.904 0 0 0 3.296-17.6h109.488a40.864 40.864 0 0 0 40.4-34.352l29.44-187.824a40.624 40.624 0 0 0-34.112-46.4 41.408 41.408 0 0 0-6.4-0.496 40.8 40.8 0 0 0-40.144 34.464l-24 153.456H160a51.344 51.344 0 0 0-5.856 0.144z"  horiz-adv-x="1024" />
      
      <glyph glyph-name="a-53wenjiansousuo_file-search-one" unicode="&#60677;" d="M641.045333 810.666667c8.106667 0 15.872-2.986667 21.824-8.277334l2.453334-2.410666 167.082666-183.36c11.285333-4.266667 19.605333-14.976 20.778667-27.349334l0.149333-3.050666-0.128-2.688 0.128-2.346667v-177.472c0-17.813333-14.613333-32.256-32.64-32.256-17.002667 0-29.632 12.8-31.210666 29.162667L789.333333 403.712 789.312 554.666667h-160.426667a31.573333 31.573333 0 0 0-31.402666 28.522666L597.333333 586.218667V746.581333H221.909333a7.253333 7.253333 0 0 1-7.104-5.738666l-0.149333-1.429334-1.28-710.954666c0-3.456 2.474667-6.357333 5.76-7.018667l1.493333-0.149333h240.789334c18.026667 0 32.64-13.866667 32.64-31.68a32.426667 32.426667 0 0 0-29.504-32.128L461.44-42.666667H221.909333c-38.741333 0-70.4 29.994667-72.469333 67.776L149.333333 29.013333V738.986667c0 38.272 30.357333 69.546667 68.586667 71.594666L221.909333 810.666667H641.066667zM640 341.333333a149.333333 149.333333 0 0 0 135.338667-212.522666l86.656-68.970667a33.493333 33.493333 0 0 0 5.269333-47.232 33.877333 33.877333 0 0 0-44.650667-7.253333l-2.794666 2.005333-85.973334 68.48A149.333333 149.333333 0 1 0 640 341.333333z m0-64a85.333333 85.333333 0 1 1 0-170.666666 85.333333 85.333333 0 0 1 0 170.666666z m103.765333 341.226667L661.333333 708.522667v-89.962667h82.432z"  horiz-adv-x="1024" />
      
      <glyph glyph-name="telegram" unicode="&#60153;" d="M417.28 100.266667 429.226667 280.746667 756.906667 576C771.413333 589.226667 753.92 595.626667 734.72 584.106667L330.24 328.533333 155.306667 384C117.76 394.666667 117.333333 420.693333 163.84 439.466667L845.226667 702.293333C876.373333 716.373333 906.24 694.613333 894.293333 646.826667L778.24 100.266667C770.133333 61.44 746.666667 52.053333 714.24 69.973333L537.6 200.533333 452.693333 118.186667C442.88 108.373333 434.773333 100.266667 417.28 100.266667Z"  horiz-adv-x="1024" />
      
      <glyph glyph-name="telegram1" unicode="&#62021;" d="M512 880C238 880 16 658 16 384s222-496 496-496 496 222 496 496S786 880 512 880z m243.6-339.8l-81.4-383.6c-6-27.2-22.2-33.8-44.8-21l-124 91.4-59.8-57.6c-6.6-6.6-12.2-12.2-25-12.2l8.8 126.2 229.8 207.6c10 8.8-2.2 13.8-15.4 5l-284-178.8-122.4 38.2c-26.6 8.4-27.2 26.6 5.6 39.4l478.2 184.4c22.2 8 41.6-5.4 34.4-39z"  horiz-adv-x="1024" />
      
      <glyph glyph-name="telegram2" unicode="&#59591;" d="M912.213333 741.973333A85.333333 85.333333 0 0 1 853.333333 768a85.333333 85.333333 0 0 1-33.28-6.826667l-708.266666-306.773333a42.666667 42.666667 0 0 1-26.453334-42.666667V384a42.666667 42.666667 0 0 1 29.44-42.666667L298.666667 279.893333l55.466666-187.306666a75.946667 75.946667 0 0 1 56.32-53.333334 62.72 62.72 0 0 1 15.36 0 73.813333 73.813333 0 0 1 50.773334 20.48l67.84 64 131.413333-103.68a85.333333 85.333333 0 0 1 90.026667-9.386666l14.08 7.253333a88.32 88.32 0 0 1 46.506666 62.72L938.666667 660.906667a90.026667 90.026667 0 0 1-26.453334 81.066666zM763.733333 90.88a25.173333 25.173333 0 0 0-12.8-17.493333l-14.08-7.253334a19.626667 19.626667 0 0 0-8.96-2.133333 19.626667 19.626667 0 0 0-12.373333 4.693333l-160.426667 128a20.906667 20.906667 0 0 1-27.733333 0l-94.72-89.173333a11.093333 11.093333 0 0 0-5.973333-2.133333V256a21.76 21.76 0 0 0 6.826666 15.786667c136.106667 128 217.6 199.68 266.24 240.64a15.786667 15.786667 0 0 1 5.12 11.093333 13.653333 13.653333 0 0 1-4.266666 11.093333 14.933333 14.933333 0 0 1-17.92 4.266667l-322.56-203.52a21.333333 21.333333 0 0 0-18.346667 0L149.333333 401.066667l694.186667 301.226666a16.64 16.64 0 0 0 7.68 0 22.186667 22.186667 0 0 0 16.213333-7.68 26.88 26.88 0 0 0 6.826667-23.466666z"  horiz-adv-x="1024" />
      
      <glyph glyph-name="facebook" unicode="&#59161;" d="M767.414857 889.161143v-150.857143h-89.709714c-70.290286 0-83.419429-33.718857-83.419429-82.285714v-107.995429h167.424l-22.272-169.142857H594.285714v-433.700571H419.437714V378.88H273.737143V548.022857h145.700571V672.585143C419.437714 817.152 508.013714 896 637.147429 896c61.696 0 114.870857-4.571429 130.304-6.838857z"  horiz-adv-x="1024" />
      
      <glyph glyph-name="facebook1" unicode="&#59162;" d="M932.571429 841.142857H91.428571c-20.228571 0-36.571429-16.342857-36.571428-36.571428v-841.142858c0-20.228571 16.342857-36.571429 36.571428-36.571428h841.142858c20.228571 0 36.571429 16.342857 36.571428 36.571428V804.571429c0 20.228571-16.342857 36.571429-36.571428 36.571428z m-105.6-266.857143h-73.028572c-57.257143 0-68.342857-27.2-68.342857-67.2v-88.114285h136.685714l-17.828571-137.942858h-118.857143V-73.142857H543.085714V280.914286H423.885714V418.971429h119.2v101.714285c0 118.057143 72.114286 182.4 177.485715 182.4 50.514286 0 93.828571-3.771429 106.514285-5.485714v-123.314286z"  horiz-adv-x="1024" />
      
      <glyph glyph-name="lingying" unicode="&#58883;" d="M910.334748 895.998976H113.66474A113.151717 113.151717 0 0 1 0.001024 782.33526v-796.670008A113.151717 113.151717 0 0 1 113.66474-127.998464h796.670008A113.151717 113.151717 0 0 1 1023.998464-14.334748V782.33526A113.151717 113.151717 0 0 1 910.334748 895.998976zM307.200256 16.897174H158.720627V506.36795H307.200256zM296.448283 599.551717a86.527784 86.527784 0 0 0-62.463844-26.111935 84.991788 84.991788 0 0 0-89.087777 89.087778 86.527784 86.527784 0 0 0 26.111934 62.463844 87.551781 87.551781 0 0 0 62.975843 26.111934 86.527784 86.527784 0 0 0 62.463844-26.111934 86.015785 86.015785 0 0 0 26.623933-62.463844 88.06378 88.06378 0 0 0-26.623933-62.975843z m582.654543-582.654543h-153.599616V256.000576a568.830578 568.830578 0 0 1 0 59.90385 97.279757 97.279757 0 0 1-20.991947 44.543889 63.487841 63.487841 0 0 1-56.319859 23.551941c-60.927848 0-91.647771-41.983895-91.647771-125.439686v-241.663396H406.528008V506.36795h144.383639v-66.559834h3.071992a146.431634 146.431634 0 0 0 144.383639 77.823806 153.599616 153.599616 0 0 0 143.359642-59.90385 322.559194 322.559194 0 0 0 37.375906-171.007573z"  horiz-adv-x="1024" />
      
      <glyph glyph-name="lingying1" unicode="&#61000;" d="M54.272 581.632h197.632v-656.896H54.272zM153.6 844.8a102.4 102.4 0 0 1-102.4-102.4 102.4 102.4 0 0 1 102.4-96.768A102.4 102.4 0 0 1 256 742.4a102.4 102.4 0 0 1-102.4 102.4zM908.8 494.592a196.096 196.096 0 0 1-162.816 67.072 217.6 217.6 0 0 1-194.56-110.592h-3.072V581.632H382.464c3.072-67.072 0-656.896 0-656.896h197.632V332.8a94.72 94.72 0 0 0 98.816 75.776c64 0 95.744-46.592 95.744-136.704V-76.8H972.8v373.76a288.256 288.256 0 0 1-64 197.632z"  horiz-adv-x="1024" />
      
      <glyph glyph-name="whatsapp" unicode="&#59699;" d="M636 339.428571q7.428571 0 55.714286-25.142857t51.142857-30.285714q1.142857-2.857143 1.142857-8.571429 0-18.857143-9.714286-43.428571-9.142857-22.285714-40.571428-37.428571t-58.285715-15.142858q-32.571429 0-108.571428 35.428572-56 25.714286-97.142857 67.428571T345.142857 388q-41.142857 61.142857-40.571428 110.857143v4.571428q1.714286 52 42.285714 90.285715 13.714286 12.571429 29.714286 12.571428 3.428571 0 10.285714-0.857143t10.857143-0.857142q10.857143 0 15.142857-3.714286T421.714286 585.142857q4.571429-11.428571 18.857143-50.285714t14.285714-42.857143q0-12-19.714286-32.857143T415.428571 432.571429q0-4 2.857143-8.571429 19.428571-41.714286 58.285715-78.285714 32-30.285714 86.285714-57.714286 6.857143-4 12.571428-4 8.571429 0 30.857143 27.714286t29.714286 27.714285z m-116-302.857142q72.571429 0 139.142857 28.571428t114.571429 76.571429 76.571428 114.571428 28.571429 139.142857-28.571429 139.142858T773.714286 649.142857t-114.571429 76.571429T520 754.285714t-139.142857-28.571428T266.285714 649.142857 189.714286 534.571429 161.142857 395.428571q0-116 68.571429-210.285714l-45.142857-133.142857 138.285714 44q90.285714-59.428571 197.142857-59.428571z m0 789.714285q87.428571 0 167.142857-34.285714T824.571429 700t92-137.428571 34.285714-167.142858-34.285714-167.142857-92-137.428571-137.428572-92-167.142857-34.285714q-111.428571 0-208.571429 53.714285l-238.285714-76.571428 77.714286 231.428571q-61.714286 101.714286-61.714286 222.285714 0 87.428571 34.285714 167.142858T215.428571 700t137.428572 92T520 826.285714z"  horiz-adv-x="1024" />
      
      <glyph glyph-name="whatsapp1" unicode="&#59911;" d="M511.872427 896h0.256C794.45376 896 1024.000427 666.325333 1024.000427 384s-229.589333-512-511.872-512c-104.106667 0-200.704 31.018667-281.6 84.565333L33.707093-106.325333l63.786667 190.250666A508.245333 508.245333 0 0 0 0.000427 384C0.000427 666.325333 229.58976 896 511.872427 896zM365.39776 614.570667c-9.770667 23.338667-17.194667 24.234667-32 24.832A285.525333 285.525333 0 0 1 316.50176 640c-19.285333 0-39.424-5.632-51.626667-18.048C250.155093 606.890667 213.33376 571.733333 213.33376 499.498667c0-72.149333 52.778667-141.952 59.861333-151.722667 7.424-9.728 102.912-160 251.093334-221.226667 115.925333-47.914667 150.314667-43.477333 176.725333-37.845333 38.528 8.277333 86.826667 36.693333 98.986667 70.954667 12.16 34.346667 12.16 63.616 8.618666 69.845333-3.584 6.186667-13.354667 9.728-28.16 17.152-14.848 7.381333-86.869333 42.88-100.522666 47.616-13.354667 4.992-26.069333 3.242667-36.138667-10.965333-14.250667-19.797333-28.16-39.936-39.466667-52.053334-8.874667-9.472-23.424-10.666667-35.541333-5.632-16.298667 6.826667-61.952 22.784-118.314667 72.789334-43.562667 38.741333-73.216 86.954667-81.792 101.418666-8.618667 14.805333-0.896 23.381333 5.930667 31.36 7.381333 9.173333 14.506667 15.658667 21.930667 24.234667 7.424 8.576 11.52 13.013333 16.298666 23.082667 5.034667 9.770667 1.493333 19.84-2.090666 27.221333-3.541333 7.381333-33.194667 79.573333-45.354667 108.8z"  horiz-adv-x="1024" />
      
      <glyph glyph-name="wechat" unicode="&#58966;" d="M1016.32 325.12c-30.72 110.080-112.64 179.2-240.64 207.36-28.16 5.12-40.96 12.8-46.080 38.4-2.56 20.48-15.36 38.4-25.6 53.76-69.12 110.080-179.2 168.96-320 176.64v0c-102.4-2.56-179.2-23.040-243.2-69.12-110.080-79.36-153.6-179.2-133.12-299.52 12.8-66.56 48.64-122.88 115.2-176.64 12.8-10.24 15.36-17.92 10.24-30.72-7.68-20.48-15.36-40.96-20.48-66.56-2.56-7.68 0-20.48 5.12-28.16 5.12-5.12 20.48 0 25.6 0 10.24 10.24 23.040 15.36 38.4 23.040 15.36 7.68 33.28 17.92 51.2 25.6 7.68 2.56 20.48 5.12 30.72 5.12 53.76-2.56 97.28-5.12 138.24-10.24 5.12 0 12.8-7.68 17.92-12.8 56.32-112.64 186.88-179.2 314.88-161.28 66.56 10.24 110.080 0 153.6-28.16 5.12-5.12 12.8-5.12 20.48-5.12 2.56 0 7.68 0 10.24 0h5.12v5.12c0 2.56 0 5.12 0 7.68 0 7.68 2.56 15.36 0 20.48-20.48 40.96-12.8 69.12 25.6 102.4 64 61.44 89.6 140.8 66.56 222.72zM166.4 204.8c2.56 10.24 5.12 20.48 10.24 30.72 10.24 20.48 5.12 35.84-15.36 51.2-58.88 43.52-92.16 89.6-104.96 148.48-23.040 102.4 12.8 189.44 104.96 256 58.88 43.52 133.12 64 204.8 64 104.96 0 212.48-43.52 276.48-125.44 12.8-17.92 23.040-38.4 35.84-61.44 5.12-7.68 7.68-17.92 12.8-28.16-107.52-7.68-194.56-51.2-248.32-122.88-43.52-56.32-58.88-128-43.52-199.68-7.68 0-15.36 0-25.6 0-23.040 0-43.52 0-61.44 5.12-51.2 12.8-89.6 7.68-125.44-17.92-5.12-2.56-10.24-5.12-17.92-7.68-2.56 0-2.56-2.56-5.12-2.56 0 2.56 2.56 7.68 2.56 10.24zM931.84 161.28c-17.92-23.040-35.84-40.96-51.2-53.76-23.040-17.92-28.16-35.84-17.92-61.44 2.56-2.56 2.56-7.68 2.56-10.24 0-2.56 0-2.56 0-5.12v0c-20.48 20.48-43.52 25.6-64 25.6-15.36 0-28.16-2.56-43.52-5.12-7.68 0-15.36-2.56-20.48-2.56-102.4-12.8-189.44 23.040-250.88 99.84-64 79.36-56.32 192 23.040 266.24 53.76 51.2 133.12 79.36 212.48 76.8 79.36-5.12 153.6-38.4 204.8-97.28 56.32-69.12 61.44-161.28 5.12-232.96zM204.8 591.36c0-0 0-0 0-0 0-24.035 19.485-43.52 43.52-43.52 24.035 0 43.52 19.485 43.52 43.52 0 0 0 0 0 0 0 24.035-19.485 43.52-43.52 43.52-24.035 0-43.52-19.485-43.52-43.52zM455.68 591.36c0-24.035 19.485-43.52 43.52-43.52 24.035 0 43.52 19.485 43.52 43.52 0 24.035-19.485 43.52-43.52 43.52-24.035 0-43.52-19.485-43.52-43.52zM578.56 345.6c0-18.38 14.9-33.28 33.28-33.28s33.28 14.9 33.28 33.28c0 18.38-14.9 33.28-33.28 33.28-18.38 0-33.28-14.9-33.28-33.28zM775.68 345.6c0-18.38 14.9-33.28 33.28-33.28s33.28 14.9 33.28 33.28c0 18.38-14.9 33.28-33.28 33.28-18.38 0-33.28-14.9-33.28-33.28z"  horiz-adv-x="1025" />
      
      <glyph glyph-name="wechat-fill" unicode="&#59523;" d="M690.1 518.6c5.9 0 11.8-0.2 17.6-0.5-24.4 128.7-158.3 227.1-319.9 227.1C209 745.2 64 624.6 64 475.8c0-81.1 43.6-154.2 111.9-203.6 5.5-3.9 9.1-10.3 9.1-17.6 0-2.4-0.5-4.6-1.1-6.9-5.5-20.3-14.2-52.8-14.6-54.3-0.7-2.6-1.7-5.2-1.7-7.9 0-5.9 4.8-10.8 10.8-10.8 2.3 0 4.2 0.9 6.2 2l70.9 40.9c5.3 3.1 11 5 17.2 5 3.2 0 6.4-0.5 9.5-1.4 33.1-9.5 68.8-14.8 105.7-14.8 6 0 11.9 0.1 17.8 0.4-7.1 21-10.9 43.1-10.9 66 0 135.8 132.2 245.8 295.3 245.8z m-194.3 86.5c23.8 0 43.2-19.3 43.2-43.1s-19.3-43.1-43.2-43.1c-23.8 0-43.2 19.3-43.2 43.1s19.4 43.1 43.2 43.1z m-215.9-86.2c-23.8 0-43.2 19.3-43.2 43.1s19.3 43.1 43.2 43.1 43.2-19.3 43.2-43.1-19.4-43.1-43.2-43.1zM866.7 103.3c56.9 41.2 93.2 102 93.2 169.7 0 124-120.8 224.5-269.9 224.5-149 0-269.9-100.5-269.9-224.5S540.9 48.5 690 48.5c30.8 0 60.6 4.4 88.1 12.3 2.6 0.8 5.2 1.2 7.9 1.2 5.2 0 9.9-1.6 14.3-4.1l59.1-34c1.7-1 3.3-1.7 5.2-1.7 2.4 0 4.7 0.9 6.4 2.6 1.7 1.7 2.6 4 2.6 6.4 0 2.2-0.9 4.4-1.4 6.6-0.3 1.2-7.6 28.3-12.2 45.3-0.5 1.9-0.9 3.8-0.9 5.7 0.1 5.9 3.1 11.2 7.6 14.5zM600.2 308.8c-19.9 0-36 16.1-36 35.9 0 19.8 16.1 35.9 36 35.9s36-16.1 36-35.9c0-19.8-16.2-35.9-36-35.9z m179.9 0c-19.9 0-36 16.1-36 35.9 0 19.8 16.1 35.9 36 35.9s36-16.1 36-35.9c-0.1-19.8-16.2-35.9-36-35.9z"  horiz-adv-x="1024" />
      
      <glyph glyph-name="guanzhu-yiguanzhu" unicode="&#59160;" d="M512 43.301L245.08-96.95c-32.28-16.962-70 10.451-63.832 46.392l50.972 297.025L16.296 456.826c-26.127 25.453-11.717 69.817 24.38 75.06l298.42 43.338L472.547 845.481c16.143 32.692 62.761 32.692 78.904 0l133.453-270.257 298.419-43.339c36.097-5.242 50.507-49.606 24.38-75.06L791.78 246.468l50.972-297.025c6.168-35.94-31.551-63.354-63.832-46.392L512 43.3z"  horiz-adv-x="1024" />
      
      <glyph glyph-name="share-two" unicode="&#58882;" d="M914.734946 84.827223c0 79.745229-65.557088 144.413064-146.470933 144.413064-52.384068 0-98.015338-27.361161-123.857912-68.140936L398.245701 339.364407c2.303462 10.033517 3.908006 20.258393 3.908006 30.989805 0 0.48914-0.105401 0.942465-0.105401 1.39579 0 0.610914 0.105401 1.169639 0.105401 1.779529 0 13.06148-2.443655 25.51921-5.862521 37.525662l265.86109 173.055404c26.64587-27.753087 64.180741-45.342698 106.060571-45.342698 80.912821 0 146.470933 64.659649 146.470933 144.403854 0 0.505513-0.173962 1.064238-0.173962 1.569752 0 0.611937 0.173962 1.108241 0.173962 1.614777 0 79.744205-65.557088 144.350642-146.470933 144.350642-80.862679 0-146.420791-64.60746-146.420791-144.350642 0-0.672312 0.106424-1.169639 0.106424-1.840928 0-0.506537-0.106424-0.951675-0.106424-1.343601 0-11.333116 1.832741-22.169929 4.466732-32.66598L358.547561 476.282776c-26.470885 25.737174-62.766532 41.660842-102.796224 41.660842-80.931241 0-146.489352-64.61667-146.489352-144.360875 0-0.557702 0.156566-1.064238 0.156566-1.62194 0-0.558725-0.156566-1.065262-0.156566-1.554402 0-79.744205 65.558112-144.412041 146.489352-144.412041 43.152822 0 81.576947 18.810415 108.379383 48.073902L622.07142 87.16547800000001c-0.121773-0.785899-0.228197-1.50119-0.228197-2.338255 0-0.506537 0.157589-1.064238 0.157589-1.570775-0.052189-0.557702-0.157589-1.116427-0.157589-1.62194 0-79.727833 65.559135-144.343479 146.420791-144.343479 80.912821 0 146.470933 64.615647 146.470933 144.343479 0 0.557702-0.173962 1.116427-0.173962 1.62194C914.560984 83.76196100000004 914.734946 84.37287500000002 914.734946 84.827223zM768.158612 775.411551c49.366338 0 89.37761-40.020482 89.37761-89.376587 0-49.347918-40.011272-89.393983-89.37761-89.393983-49.382711 0-89.39296 40.047088-89.39296 89.393983C678.765653 735.391069 718.775902 775.411551 768.158612 775.411551zM256.659009 281.71031200000004c-49.346895 0-89.376587 40.047088-89.376587 89.393983 0 49.356105 40.029692 89.376587 89.376587 89.376587 49.382711 0 89.411379-40.019459 89.411379-89.376587C346.071412 321.75739999999996 306.04172 281.71031200000004 256.659009 281.71031200000004zM768.158612-6.85282600000005c-49.382711 0-89.39296 40.047088-89.39296 89.393983 0 49.346895 40.011272 89.376587 89.39296 89.376587 49.366338 0 89.37761-40.029692 89.37761-89.376587C857.536222 33.19323899999995 817.52495-6.85282600000005 768.158612-6.85282600000005z"  horiz-adv-x="1024" />
      
      <glyph glyph-name="guanzhu-zhihui" unicode="&#58965;" d="M518.4 746.709333c112.597333 80.789333 267.882667 69.397333 368.128-32 53.866667-54.528 84.138667-128.853333 84.138667-206.378666 0-77.525333-30.293333-151.850667-84.096-206.336l-294.421334-299.52a110.976 110.976 0 0 0-80.213333-34.474667 110.72 110.72 0 0 0-79.914667 34.176L137.322667 302.229333C83.562667 356.757333 53.333333 431.018667 53.333333 508.458667s30.229333 151.722667 84.010667 206.272c101.973333 103.146667 260.992 113.152 374.016 27.626666l0.554667-0.426666z m322.602667-76.970666c-84.629333 85.589333-219.157333 88.64-307.328 6.954666l-21.76-20.138666-21.717334 20.138666c-88.192 81.685333-222.72 78.634667-307.306666-6.933333-41.92-42.496-65.557333-100.608-65.557334-161.28 0-60.693333 23.637333-118.805333 65.6-161.344l295.04-300.416c9.045333-9.450667 21.269333-14.72 33.962667-14.72 12.693333 0 24.917333 5.269333 34.261333 15.04L840.96 346.92266700000005c42.005333 42.496 65.685333 100.650667 65.685333 161.408 0 60.736-23.68 118.912-65.664 161.408z m-192.874667-15.509334c52.416-0.96 95.296-16.981333 126.826667-48.512 31.552-31.573333 47.509333-74.410667 48.32-126.72a32 32 0 1 0-64-1.002666c-0.554667 36.586667-10.56 63.466667-29.568 82.453333-19.029333 19.029333-46.016 29.12-82.773334 29.802667a32 32 0 0 0 1.194667 63.978666z"  horiz-adv-x="1024" />
      
      <glyph glyph-name="yiguanzhu" unicode="&#58880;" d="M510.39744 597.24288C395.13088 871.744512 53.377024 807.491584 65.26464 489.122816c6.569984-174.884864 185.560064-255.371264 278.36416-340.880384 90.631168-83.576832 129.665024-111.694848 167.640064-149.474304 32.173056 32.659456 76.910592 62.802944 166.283264 149.474304 91.117568 88.50432 262.523904 170.923008 278.272 342.813696C985.101312 809.0368 620.352512 860.729344 510.39744 597.24288z"  horiz-adv-x="1024" />
      
      <glyph glyph-name="weiguanzhu" unicode="&#58881;" d="M284.844032 768.828416l-0.04608-73.89696c65.524736 0 124.601344-47.434752 157.989888-126.839808 11.497472-27.420672 38.340608-45.321216 68.124672-45.321216 0 0 0 0 0.094208 0 29.734912 0.09728 56.574976 17.993728 68.07552 45.420544 37.763072 90.56256 109.451264 122.843136 164.000768 122.843136 38.780928 0 73.801728-14.959616 98.58048-42.144768 31.609856-34.635776 45.171712-86.956032 39.25504-151.232512-8.94464-97.370112-91.358208-162.029568-171.124736-224.474112-30.212096-23.769088-58.785792-46.184448-83.899392-70.629376-50.518016-48.970752-85.490688-78.608384-113.6384-102.469632-4.52096 3.943424-9.237504 7.986176-14.140416 12.218368-25.788416 22.130688-57.829376 49.744896-103.2448 91.603968-24.728576 22.79936-52.825088 43.679744-82.556928 65.81248C230.145024 330.911744 145.134592 394.129408 141.526016 491.793408c-2.598912 68.70016 15.299584 126.547968 50.323456 162.921472 24.968192 25.930752 58.01984 40.2176 92.94848 40.2176L284.844032 768.828416M284.844032 768.828416c-115.5584 0-223.947776-98.528256-217.213952-279.829504C74.17344 314.752 252.419072 234.599424 344.83712 149.541888c90.252288-83.324928 129.127424-111.325184 166.9376-148.944896 32.045056 32.520192 76.593152 62.5408 165.594112 148.944896 90.73664 88.137728 261.426176 170.113024 277.10976 341.287936 16.54784 179.760128-93.334528 274.101248-211.395584 274.101248-90.05568 0-184.834048-54.746112-232.170496-168.237056C461.74208 713.647104 371.29728 768.828416 284.844032 768.828416L284.844032 768.828416z"  horiz-adv-x="1024" />
      
      <glyph glyph-name="querenfangan" unicode="&#58961;" d="M609.581176-51.501176 109.025882-51.501176c-15.058824 0-27.708235 9.035294-27.708235 18.672941L81.317647 769.505882c0 10.24 13.251765 18.672941 27.708235 18.672941L162.635294 788.178824c9.637647 0 16.865882 7.830588 16.865882 16.865882 0 9.637647-7.830588 16.865882-16.865882 16.865882l-53.609412 0c-34.334118 0-62.042353-23.491765-62.042353-53.007059l0-801.731765c0-28.912941 27.708235-53.007059 62.042353-53.007059l500.555294 0c9.637647 0 16.865882 7.830588 16.865882 16.865882S619.218824-51.501176 609.581176-51.501176zM758.964706 788.178824l39.755294 0c15.058824 0 27.708235-9.035294 27.708235-18.672941l0-381.891765c0-9.637647 7.830588-16.865882 16.865882-16.865882 9.637647 0 16.865882 7.830588 16.865882 16.865882L860.16 769.505882c0 28.912941-27.708235 53.007059-62.042353 53.007059L758.964706 822.512941c-9.637647 0-16.865882-7.830588-16.865882-16.865882C742.098824 796.009412 749.327059 788.178824 758.964706 788.178824zM771.011765 546.635294c0 9.637647-7.830588 16.865882-16.865882 16.865882L156.611765 563.501176c-9.637647 0-16.865882-7.830588-16.865882-16.865882 0-9.637647 7.830588-16.865882 16.865882-16.865882l597.534118 0C763.783529 529.167059 771.011765 536.997647 771.011765 546.635294zM615.002353 341.232941c0 9.637647-7.830588 16.865882-16.865882 16.865882L156.611765 358.098824c-9.637647 0-16.865882-7.830588-16.865882-16.865882 0-9.637647 7.830588-16.865882 16.865882-16.865882l441.524706 0C607.774118 324.367059 615.002353 332.197647 615.002353 341.232941zM156.611765 153.901176c-9.637647 0-16.865882-7.830588-16.865882-16.865882 0-9.637647 7.830588-16.865882 16.865882-16.865882l360.207059 0c9.637647 0 16.865882 7.830588 16.865882 16.865882 0 9.637647-7.830588 16.865882-16.865882 16.865882L156.611765 153.901176zM239.134118 751.435294l438.512941 0c28.310588 0 51.802353 23.491765 51.802353 51.802353l0 4.216471c0 28.310588-23.491765 51.802353-51.802353 51.802353L239.134118 859.256471c-28.310588 0-51.802353-23.491765-51.802353-51.802353l0-4.216471C187.331765 774.324706 210.823529 751.435294 239.134118 751.435294zM244.555294 822.512941l428.272941 0c9.637647 0 16.865882-7.830588 16.865882-16.865882 0-9.637647-7.830588-16.865882-16.865882-16.865882L244.555294 788.781176c-9.637647 0-16.865882 7.830588-16.865882 16.865882C227.087059 814.682353 234.917647 822.512941 244.555294 822.512941zM786.070588 353.28c-119.868235 0-216.847059-97.581176-216.847059-216.847059s97.581176-216.847059 216.847059-216.847059 216.847059 97.581176 216.847059 216.847059S905.336471 353.28 786.070588 353.28zM786.070588-57.524706c-107.218824 0-193.957647 87.341176-193.957647 193.957647 0 107.218824 87.341176 193.957647 193.957647 193.957647s193.957647-87.341176 193.957647-193.957647C980.028235 29.816471 892.687059-57.524706 786.070588-57.524706zM884.254118 215.943529l-120.470588-122.88-77.101176 72.884706c-6.625882 6.625882-17.468235 6.023529-24.094118-0.602353-6.625882-6.625882-6.023529-17.468235 0.602353-24.094118l101.195294-95.774118 143.962353 146.371765c6.625882 6.625882 6.625882 17.468235 0 24.094118C901.722353 222.569412 890.88 222.569412 884.254118 215.943529z"  horiz-adv-x="1024" />
      
      <glyph glyph-name="bailingjiaoshaojiaban" unicode="&#58962;" d="M767.147536 360.306389H604.275474c109.139771 37.62293 187.632745 139.981624 187.632746 260.147816 0 151.914484-125.558927 275.534321-279.963248 275.534321s-279.963248-123.619837-279.963247-275.534321c0-120.120297 78.481501-222.524886 187.621271-260.147816H256.845674C172.833752 360.306389 104.495182 293.034892 104.495182 210.365417v-251.16375c0-48.064182 39.722654-87.201667 88.567062-87.201667h637.880196c48.809986 0 88.544114 39.114537 88.544114 87.201667v251.16375c0.011474 82.669475-68.327096 149.940972-152.339018 149.940972zM618.985019 284.888421l-64.25386 63.221209 64.25386-63.209735z m-44.748224-24.967214l-62.245927-245.162899-62.268875 245.174372 62.268875 61.305067z m-292.584542 364.284965c2.042355 123.321516 104.584631 223.00679 230.350089 223.00679 124.331219 0 225.967057-97.436389 230.246823-218.807342h-13.871949c-165.579903 0-212.370482 61.064115-246.528293 105.651705-8.157945 10.647783-15.856935 20.653026-24.427941 29.155189l-21.697151 21.410304-16.671582-25.368801c-56.222128-85.836273-135.483854-133.888981-136.252605-134.347937z m6.70076-26.929252c27.916007 18.931941 89.966878 65.504516 144.720346 137.342626 0.309795-0.378639 0.619591-0.791699 0.929386-1.20476 43.600834-56.887614 108.359546-141.43881 311.493535-149.355803-14.330906-111.296865-111.078861-197.546198-227.917621-197.546198h-1.858773l-3.729018 3.740492-3.625754-3.442171c-117.228873 4.474822-212.152477 95.91036-220.012101 210.477288z m-95.2334-676.489882c-21.525043 0-39.011272 17.210855-39.011272 38.414629v251.16375c0 55.786119 46.113619 101.176882 102.81765 101.176882h105.146852l61.844341-5.932008-21.892208-20.916927 98.05598-364.1817z m676.891469 38.414629c0-21.180826-17.509177-38.414629-39.011273-38.414629H524.795744l104.309258 354.119087-13.447415 36.636174h151.455527c56.704032 0 102.81765-45.379289 102.81765-101.176882z"  horiz-adv-x="1024" />
      
      <glyph glyph-name="yizhanshi" unicode="&#58963;" d="M259.008 620.48l506.848-506.816 22.624 22.624-506.816 506.848zM195.2 595.2a105.6 105.6 0 1 0 0 211.2 105.6 105.6 0 0 0 0-211.2z m0 32a73.6 73.6 0 1 1 0 147.2 73.6 73.6 0 0 1 0-147.2z m633.6-665.6a105.6 105.6 0 1 0 0 211.2 105.6 105.6 0 0 0 0-211.2z m0 32a73.6 73.6 0 1 1 0 147.2 73.6 73.6 0 0 1 0-147.2z m-64.096 661.824L240.32 131.008l22.624-22.624L787.328 632.8zM828.8 595.2a105.6 105.6 0 1 0 0 211.2 105.6 105.6 0 0 0 0-211.2z m0 32a73.6 73.6 0 1 1 0 147.2 73.6 73.6 0 0 1 0-147.2zM195.2-38.4a105.6 105.6 0 1 0 0 211.2 105.6 105.6 0 0 0 0-211.2z m0 32a73.6 73.6 0 1 1 0 147.2 73.6 73.6 0 0 1 0-147.2z m331.68 158.24V611.776h-32V151.84zM512 594.976a72.736 72.736 0 1 0 0 145.504 72.736 72.736 0 0 0 0-145.504z m0 32a40.736 40.736 0 1 1 0 81.504 40.736 40.736 0 0 1 0-81.504z m0-599.456a72.736 72.736 0 1 0 0 145.504 72.736 72.736 0 0 0 0-145.504z m0 32a40.736 40.736 0 1 1 0 81.504 40.736 40.736 0 0 1 0-81.504zM294.4 354.56h462.08v32H294.4zM795.744 311.264a72.736 72.736 0 1 0 0 145.472 72.736 72.736 0 0 0 0-145.472z m0 32a40.736 40.736 0 1 1 0 81.472 40.736 40.736 0 0 1 0-81.472z m-567.488-32a72.736 72.736 0 1 0 0 145.472 72.736 72.736 0 0 0 0-145.472z m0 32a40.736 40.736 0 1 1 0 81.472 40.736 40.736 0 0 1 0-81.472zM512 242.56a141.44 141.44 0 1 0 0 282.88 141.44 141.44 0 0 0 0-282.88z"  horiz-adv-x="1024" />
      
      <glyph glyph-name="cheliang" unicode="&#58964;" d="M939.223 33.227c-12.304-49.581-55.964-85.734-107.63-85.734-47.96 0-88.809 30.728-104.355 75.017H296.752c-15.547-44.323-56.429-75.017-104.39-75.017-51.665 0-95.258 36.153-107.596 85.734-53.717 22.525-87.95 78.126-83.452 139.847l10.551 143.583c4.134 57.322 40.22 107.994 91.919 131.61l46.44 223.827c17 81.83 97.21 148.414 178.843 148.414h365.855c81.632 0 161.842-66.55 178.81-148.414l46.44-223.826c51.698-23.616 87.784-74.29 91.952-131.61l10.518-143.584c4.498-61.722-29.702-117.323-83.419-139.847z m10.585 278.634c-2.744 37.277-30.165 71.114-66.748 82.293-11.974 3.672-20.673 14.29-22.128 26.991-0.231 1.818-0.363 3.605-0.462 5.358-0.067 0.926-0.067 1.885-0.264 2.845l-47.564 229.384c-11.015 52.954-64.929 97.706-117.718 97.706H329.067c-52.823 0-106.705-44.752-117.718-97.706l-47.597-229.417c-0.199-0.86-0.199-1.82-0.265-2.778-0.132-1.82-0.264-3.673-0.462-5.491-1.488-12.702-10.155-23.253-22.095-26.924-36.615-11.147-64.068-44.983-66.78-82.294L63.63 168.244c-2.812-38.203 20.242-70.849 56.064-79.35 13.562-3.274 23.418-15.38 24.113-29.67 1.29-26.758 22.625-47.694 48.556-47.694 25.336 0 46.108 19.68 48.358 45.81 1.455 16.504 14.95 29.173 31.124 29.173h480.267c16.174 0 29.735-12.669 31.125-29.174 2.249-26.13 23.02-45.81 48.357-45.81 25.931 0 47.265 20.97 48.556 47.695 0.727 14.356 10.584 26.429 24.146 29.67 35.788 8.501 58.843 41.18 55.997 79.384L949.808 311.86zM840.26 184.716c-13.098-13.396-31.455-21.202-49.945-21.202-18.49 0-36.847 7.807-49.913 21.202-13.065 13.396-20.672 32.216-20.672 51.169 0 18.952 7.607 37.806 20.672 51.202 13.066 13.396 31.423 21.202 49.913 21.202s36.847-7.807 49.945-21.202c13.065-13.396 20.672-32.25 20.672-51.202 0-18.953-7.607-37.773-20.672-51.169z m-59.934 245.26c-6.12-7.574-16.076-11.974-27.684-11.974h-481.36c-11.576 0-21.533 4.4-28.081 12.438-6.25 7.376-8.93 18.093-7.177 29.702 0.165 0.794 0.297 1.555 0.463 2.316l37.806 168.457c4.763 26.593 30.43 48.754 56.825 48.754h361.688c26.395 0 52.063-22.226 56.792-48.754l37.806-168.49c0.199-0.761 0.331-1.523 0.463-2.317 1.72-11.609-0.926-22.326-7.54-30.132z m-91.324 185.657H335.02L305.021 482.07H718.97l-29.968 133.562zM283.587 184.716c-13.066-13.396-31.423-21.202-49.913-21.202s-36.846 7.807-49.912 21.202c-13.098 13.396-20.705 32.216-20.705 51.169 0 18.952 7.607 37.806 20.705 51.202 13.066 13.396 31.423 21.202 49.912 21.202 18.49 0 36.847-7.807 49.913-21.202 13.098-13.396 20.705-32.25 20.705-51.202 0-18.953-7.607-37.773-20.705-51.169z"  horiz-adv-x="1039" />
      
      <glyph glyph-name="wj-fa" unicode="&#59176;" d="M751.5 735.5v-608c0-17.7-14.3-32-32-32h-511c-17.7 0-32 14.3-32 32v608c0 17.7 14.3 32 32 32h511c17.7 0 32-14.3 32-32z m0 96h-575c-35.3 0-64-28.7-64-64v-672c0-35.3 28.7-64 64-64h575c35.3 0 64 28.7 64 64v672c0 35.3-28.7 64-64 64zM639.5 607.5h-352c-17.7 0-32 14.3-32 32s14.3 32 32 32h352c17.7 0 32-14.3 32-32s-14.3-32-32-32zM639.5 415.5h-352c-17.7 0-32 14.3-32 32s14.3 32 32 32h352c17.7 0 32-14.3 32-32s-14.3-32-32-32zM447.5 223.5h-160c-17.7 0-32 14.3-32 32s14.3 32 32 32h160c17.7 0 32-14.3 32-32s-14.3-32-32-32zM847.5 736.5h-0.5v-90.4c0.3-1.8 0.5-3.7 0.5-5.6v-608c0-17.7-14.3-32-32-32h-639c0-35.3 28.7-64 64-64h607c35.3 0 64 28.7 64 64v672c0 35.3-28.7 64-64 64z"  horiz-adv-x="1024" />
      
      <glyph glyph-name="guanzhu-weiguanzhu" unicode="&#59159;" d="M283.057 22.413l208.477 109.543a44 44 0 0 0 40.932 0l208.477-109.543-39.81 231.98a44 44 0 0 0 12.663 38.957L882.41 457.618l-233.04 33.844a44 44 0 0 0-33.128 24.062L512 726.624l-104.24-211.1a44 44 0 0 0-33.13-24.062l-233.04-33.844L310.205 293.35a44 44 0 0 0 12.662-38.958l-39.81-231.98zM512 43.3L245.08-96.95c-32.28-16.962-70 10.451-63.832 46.392l50.972 297.025L16.296 456.826c-26.127 25.453-11.717 69.817 24.38 75.06l298.42 43.338L472.547 845.481c16.143 32.692 62.761 32.692 78.904 0l133.453-270.257 298.419-43.339c36.097-5.242 50.507-49.606 24.38-75.06L791.78 246.468l50.972-297.025c6.168-35.94-31.551-63.354-63.832-46.392L512 43.3z"  horiz-adv-x="1024" />
      
      <glyph glyph-name="daohang" unicode="&#58960;" d="M898.8 617.6H152.8a32 32 0 0 0 0 64h746a32 32 0 0 0 0-64zM898.8 348.592H152.8a32 32 0 0 0 0 64h746a32 32 0 0 0 0-64zM898.8 79.6H152.8a32 32 0 0 0 0 64h746a32 32 0 0 0 0-64z"  horiz-adv-x="1024" />
      
      <glyph glyph-name="gengduo" unicode="&#58904;" d="M512 384m-115.612903 0a115.612903 115.612903 0 1 1 231.225806 0 115.612903 115.612903 0 1 1-231.225806 0ZM850.580645 384m-74.32258 0a74.322581 74.322581 0 1 1 148.645161 0 74.322581 74.322581 0 1 1-148.645161 0ZM173.419355 384m-74.322581 0a74.322581 74.322581 0 1 1 148.645161 0 74.322581 74.322581 0 1 1-148.645161 0Z"  horiz-adv-x="1024" />
      
      <glyph glyph-name="fanhui" unicode="&#58905;" d="M410.970839 385.635097L679.374452 640.8258060000001a33.032258 33.032258 0 0 1-45.518452 47.863742L340.595613 409.880774a33.032258 33.032258 0 0 1-0.313807-47.582968L633.55871 76.17238699999996a33.032258 33.032258 0 0 1 46.146064 47.285678L410.970839 385.651613z"  horiz-adv-x="1024" />
      
      <glyph glyph-name="guanbi" unicode="&#58906;" d="M158.323613 737.676387a33.032258 33.032258 0 0 0 46.707613 0L512 430.740645 818.968774 737.676387a33.032258 33.032258 0 0 0 46.707613-46.707613L558.740645 384l306.952258-306.968774a33.032258 33.032258 0 0 0 1.932387-44.610065l-1.932387-2.097548a33.032258 33.032258 0 0 0-46.707613 0L512 337.259355 205.031226 30.323613000000023a33.032258 33.032258 0 0 0-46.707613 46.707613L465.259355 384 158.323613 690.9687739999999a33.032258 33.032258 0 0 0-1.932387 44.610065z"  horiz-adv-x="1024" />
      
      <glyph glyph-name="gouwuche" unicode="&#58907;" d="M280.774194 53.677418999999986a66.064516 66.064516 0 1 0 0-132.129032 66.064516 66.064516 0 0 0 0 132.129032z m528.516129 0a66.064516 66.064516 0 1 0 0-132.129032 66.064516 66.064516 0 0 0 0 132.129032zM41.835355 820.636903a33.032258 33.032258 0 0 0 38.18529 26.921291l89.038452-15.409549a33.032258 33.032258 0 0 0 27.235097-29.184l10.603354-103.192774H878.327742c55.097806 0 97.379097-48.838194 89.467871-103.589161L907.379613 196.70709699999998a110.261677 110.261677 0 0 0-109.105548-94.472258H301.402839c-57.344 0-105.075613 43.916387-109.78271 100.418064L133.12 771.303226l-64.379871 11.148387a33.032258 33.032258 0 0 0-26.92129 38.18529zM878.327742 633.7238709999999H213.685677l43.701678-424.926968a44.131097 44.131097 0 0 1 44.015484-40.464516h496.871226a44.263226 44.263226 0 0 1 43.767741 38.086194l60.399484 399.44258a24.36129 24.36129 0 0 1-24.113548 27.86271z"  horiz-adv-x="1024" />
      
      <glyph glyph-name="baigonglijiasu" unicode="&#58908;" d="M398.963613 284.605935L283.086452-34.138839c-12.07329-33.197419 29.39871-59.623226 54.387613-34.650838l561.251096 560.838193c20.810323 20.810323 6.077935 56.386065-23.353806 56.386065H577.767226a33.032258 33.032258 0 1 1 0-66.064516H795.581935L395.99071 83.092645l81.176774 223.248516a33.032258 33.032258 0 0 1-31.050323 44.329291H228.335484L667.367226 790.065548a33.032258 33.032258 0 0 1-46.740645 46.707613L125.274839 340.975484C104.481032 320.165161 119.246452 284.605935 148.645161 284.605935h250.318452z"  horiz-adv-x="1024" />
      
      <glyph glyph-name="xuhanglicheng" unicode="&#58909;" d="M512.099097 846.451613l7.76258-0.066065a462.468129 462.468129 0 0 0 277.801291-826.037677 462.402065 462.402065 0 0 0-535.931871-25.220129 462.451613 462.451613 0 0 0-199.019355 498.258581 38.234839 38.234839 0 1 0 74.322581-18.035613 385.981935 385.981935 0 0 1 597.553548-406.676645 385.981935 385.981935 0 0 1-175.665548 698.467096l-8.588388 0.957936v-101.29342c-0.016516-18.927484-13.873548-35.014194-32.817548-37.821935l-5.41729-0.396387c-18.944 0-35.014194 13.873548-37.821936 32.801032l-0.412903 5.41729V808.216774A38.251355 38.251355 0 0 0 512.099097 846.451613zM297.290323 598.709677l238.625032-150.230709c7.300129-2.972903 13.989161-7.184516 19.769806-12.453162h0.115613l2.923355-1.849806-0.495484-0.561548a67.749161 67.749161 0 1 0-95.859613-95.826581l-0.445935-0.462452-1.915871 3.088516a67.930839 67.930839 0 0 0-12.354065 19.654194L297.290323 598.709677z"  horiz-adv-x="1024" />
      
      <glyph glyph-name="dianchirongliang" unicode="&#58910;" d="M710.193548 747.354839a132.129032 132.129032 0 0 0 132.129033-132.129033v-561.548387a132.129032 132.129032 0 0 0-132.129033-132.129032H313.806452a132.129032 132.129032 0 0 0-132.129033 132.129032V615.2258059999999a132.129032 132.129032 0 0 0 132.129033 132.129033h396.387096z m0-66.064516H313.806452a66.064516 66.064516 0 0 1-66.064517-66.064517v-561.548387a66.064516 66.064516 0 0 1 66.064517-66.064516h396.387096a66.064516 66.064516 0 0 1 66.064517 66.064516V615.2258059999999a66.064516 66.064516 0 0 1-66.064517 66.064517zM487.390968 497.036387a33.032258 33.032258 0 1 0 59.887484-27.879226l-49.531871-106.396903H578.064516a33.032258 33.032258 0 0 0 29.729032-47.417806l-69.71458-143.938065a33.032258 33.032258 0 1 0-59.458065 28.804129l46.740645 96.487226H445.935484a33.032258 33.032258 0 0 0-29.943742 46.988387zM578.064516 846.451613a66.064516 66.064516 0 0 0 65.981936-62.76129L644.129032 780.387097H379.870968a66.064516 66.064516 0 0 0 66.064516 66.064516h132.129032z"  horiz-adv-x="1024" />
      
      <glyph glyph-name="youhao" unicode="&#58911;" d="M515.303226 846.451613l32.239484-33.461678 2.444387-2.576516 21.239742-22.924387 8.968258-9.876645 4.591484-5.086968 14.187354-15.921548a2401.957161 2401.957161 0 0 0 116.851613-142.468129c104.051613-137.909677 166.135742-256.231226 166.135742-340.69471 0-198.490839-164.500645-359.952516-366.658064-359.952516-202.157419 0-366.658065 161.461677-366.658065 359.952516 0 81.259355 57.476129 193.899355 154.54142 325.153033l11.594322 15.525161c36.847484 48.85471 76.634839 96.949677 116.851613 142.468129l14.187355 15.921548 13.543226 14.963613 15.838968 17.143742 12.15587 12.899097L515.303226 846.451613z m0-95.793548l-7.151484-7.729549-12.998194-14.369032-14.005677-15.706839a2332.308645 2332.308645 0 0 1-113.44929-138.256516l-11.396129-15.277419-10.785033-14.748904C259.105032 425.158194 214.709677 331.197935 214.709677 273.441032c0-161.709419 134.639484-293.888 300.593549-293.888 165.970581 0 300.593548 132.162065 300.593548 293.888 0 60.349935-48.276645 159.710968-141.807484 286.191484l-10.999742 14.699355A2331.218581 2331.218581 0 0 1 549.656774 712.670968l-14.005677 15.706838-12.882581 14.220388L515.303226 750.658065z m193.932387-501.793033l2.427871-0.842322c16.582194-6.474323 25.533935-24.460387 20.034064-41.372904-14.253419-43.932903-44.213677-81.672258-84.331354-106.314322-5.565935-3.402323-11.891613-5.169548-18.316388-5.169549-11.726452 0-22.726194 5.780645-29.134451 15.657291a33.147871 33.147871 0 0 0 10.768516 46.410322 128.924903 128.924903 0 0 1 55.362064 69.731097c5.731097 17.688774 25.054968 27.466323 43.189678 21.900387z"  horiz-adv-x="1024" />
      
      <glyph glyph-name="fenxiang" unicode="&#58912;" d="M425.637161 558.8727739999999l0.016516 106.19871c0 77.790968 90.805677 121.690839 155.697549 78.435097l3.385806-2.361807 1.701162-1.288258 349.233548-280.295226c49.862194-36.797935 51.92671-108.296258 3.831742-148.26529l-2.77471-2.147097-351.364129-281.930322c-63.966968-47.186581-155.648 11.148387-159.611871 88.724645l-0.099097 4.062968v82.861419l-10.652903-1.040516-11.115355-1.255226-13.60929-1.783742-15.293935-2.34529-14.203871-2.526968-9.612388-1.899355-12.387096-2.725161c-75.742968-17.589677-149.322323-67.303226-178.588904-124.300387l-3.633548-7.38271C126.728258 0.39638700000000426 49.548387 21.982968000000028 49.548387 85.83432300000004c0 32.98271 2.807742 66.328774 8.439742 99.575742l2.427871 13.262451 2.642581 12.882581C102.234839 391.696516 229.409032 521.8601289999999 418.254452 557.518452l7.382709 1.32129z m116.620387 131.154581c-21.966452 12.254968-50.539355-2.378323-50.539354-24.955871v-134.738581a33.032258 33.032258 0 0 0-29.117936-32.784516C282.32671 475.94529 163.427097 362.16567699999996 127.686194 197.86322600000005l-2.411355-11.759484-2.213162-12.139355a529.176774 529.176774 0 0 1-6.276129-53.330581c44.378839 63.983484 124.498581 113.812645 207.409549 133.070452l17.573161 3.79871 9.232516 1.783742 13.146839 2.312258 16.962064 2.593032 14.814968 1.948903 12.155871 1.370839 11.776 1.156129 11.363097 0.924903 10.96671 0.759742 14.748903 0.792774a33.032258 33.032258 0 0 0 34.799484-32.999225l-0.033033-117.314065 0.049549-2.378323c1.453419-28.37471 36.963097-50.952258 53.347097-38.912L895.669677 360.91045199999996l2.312258 1.800258c13.724903 11.396129 13.824 30.521806-0.478967 42.79329L545.924129 687.665548l-1.486452 1.057033-2.180129 1.32129z"  horiz-adv-x="1024" />
      
      <glyph glyph-name="manchong" unicode="&#58913;" d="M710.193548-12.387097h33.032258a33.032258 33.032258 0 1 0 0-66.064516H82.580645a33.032258 33.032258 0 1 0 0 66.064516h33.032258V714.322581a132.129032 132.129032 0 0 0 132.129032 132.129032h330.322581a132.129032 132.129032 0 0 0 132.129032-132.129032v-181.875613h33.098323A99.096774 99.096774 0 0 0 842.322581 437.066323l0.066064-3.716129V186.301935a32.98271 32.98271 0 0 1 65.948903 0V568.072258a66.064516 66.064516 0 0 1-27.648 53.76l-68.987871 49.284129a33.032258 33.032258 0 1 0 38.416517 53.743484l68.971354-49.284129a132.129032 132.129032 0 0 0 55.329033-107.503484v-381.753806a99.047226 99.047226 0 0 0-198.094452 0V433.350194a33.032258 33.032258 0 0 1-33.032258 33.032258H710.193548V-12.387097zM578.064516 780.387097H247.741935a66.064516 66.064516 0 0 1-66.064516-66.064516v-726.709678h462.451613V499.41471 714.322581a66.064516 66.064516 0 0 1-66.064516 66.064516z m-66.064516-165.161291a33.032258 33.032258 0 1 0 0-66.064516H313.806452a33.032258 33.032258 0 1 0 0 66.064516h198.193548z"  horiz-adv-x="1024" />
      
      <glyph glyph-name="kuaichong" unicode="&#58914;" d="M578.064516 846.451613a132.129032 132.129032 0 0 0 132.129032-132.129032v-181.875613h33.098323A99.096774 99.096774 0 0 0 842.322581 437.066323l0.066064-3.716129V186.301935a32.98271 32.98271 0 0 1 65.948903 0V568.072258a66.064516 66.064516 0 0 1-27.648 53.76l-68.987871 49.284129a33.032258 33.032258 0 1 0 38.416517 53.743484l68.971354-49.284129a132.129032 132.129032 0 0 0 55.329033-107.503484v-381.753806a99.047226 99.047226 0 0 0-198.094452 0V433.350194a33.032258 33.032258 0 0 1-33.032258 33.032258H710.193548V-12.387097h33.032258a33.032258 33.032258 0 1 0 0-66.064516H82.580645a33.032258 33.032258 0 1 0 0 66.064516h33.032258V714.322581a132.129032 132.129032 0 0 0 132.129032 132.129032h330.322581z m0-66.064516H247.741935a66.064516 66.064516 0 0 1-66.064516-66.064516v-726.709678h462.451613V499.41471 714.322581a66.064516 66.064516 0 0 1-66.064516 66.064516zM388.954839 414.455742a33.032258 33.032258 0 0 0 59.887484-27.879226l-33.676388-72.307613h50.952259a33.032258 33.032258 0 0 0 29.729032-47.434322l-54.222452-111.946323a33.032258 33.032258 0 0 0-59.458064 28.804129l31.248516 64.512H363.354839a33.032258 33.032258 0 0 0-29.943742 46.971871zM512 615.225806a33.032258 33.032258 0 1 0 0-66.064516H313.806452a33.032258 33.032258 0 1 0 0 66.064516h198.193548z"  horiz-adv-x="1024" />
      
      <glyph glyph-name="xuhanglicheng1" unicode="&#58915;" d="M512.099097 846.451613l7.76258-0.066065a462.468129 462.468129 0 0 0 277.801291-826.037677 462.402065 462.402065 0 0 0-535.931871-25.220129 462.451613 462.451613 0 0 0-199.019355 498.258581 38.234839 38.234839 0 1 0 74.322581-18.035613 385.981935 385.981935 0 0 1 597.553548-406.676645 385.981935 385.981935 0 0 1-175.665548 698.467096l-8.588388 0.957936v-101.29342c-0.016516-18.927484-13.873548-35.014194-32.817548-37.821935l-5.41729-0.396387c-18.944 0-35.014194 13.873548-37.821936 32.801032l-0.412903 5.41729V808.216774A38.251355 38.251355 0 0 0 512.099097 846.451613zM297.290323 598.709677l238.625032-150.230709c7.300129-2.972903 13.989161-7.184516 19.769806-12.453162h0.115613l2.923355-1.849806-0.495484-0.561548a67.749161 67.749161 0 1 0-95.859613-95.826581l-0.445935-0.462452-1.915871 3.088516a67.930839 67.930839 0 0 0-12.354065 19.654194L297.290323 598.709677z"  horiz-adv-x="1024" />
      
      <glyph glyph-name="jingyin" unicode="&#58916;" d="M165.177806 599.832774l71.861678-71.861677H155.251613c-19.406452 0-35.228903-16.152774-35.228903-35.939097v-215.585032c0-19.835871 15.822452-35.939097 35.228903-35.939097h105.703226c9.331613 0 18.332903-3.765677 24.906322-10.520774l211.489033-215.700645c3.732645-3.765677 7.151484-6.969806 10.24-9.628904V257.436903l70.457806-70.457806L578.064516-11.016258C578.064516-60.812387 548.64929-78.451613 523.47871-78.451613c-23.073032 0-48.623484 14.12129-75.924645 41.934452L246.371097 168.629677H155.251613c-58.285419 0-105.703226 48.359226-105.703226 107.800775V492.015484c0 59.425032 47.417806 107.784258 105.703226 107.784258l9.926193 0.016516zM523.280516 846.451613C548.550194 846.451613 578.064516 828.878452 578.064516 779.47871l-0.033032-340.050581 121.145806-121.145806c12.271484 26.376258 20.017548 55.791484 20.017549 92.886709 0 77.378065-27.829677 114.952258-63.058581 162.469162A1241.583484 1241.583484 0 0 0 637.522581 599.205161a36.385032 36.385032 0 0 0 8.043354 50.076904 34.634323 34.634323 0 0 0 49.052904-8.225033c5.780645-8.208516 11.709935-16.202323 17.540129-24.113548 38.020129-51.282581 77.295484-104.299355 77.295484-205.757936 0-60.515097-16.417032-106.496-37.937549-145.259354l86.841807-86.825291c38.945032 61.522581 66.890323 131.930839 66.890322 218.508387 0 131.237161-64.21471 225.395613-133.648516 307.579871a36.963097 36.963097 0 0 0 3.220645 50.754065 33.709419 33.709419 0 0 0 48.805162-3.303226C898.196645 664.245677 974.451613 553.009548 974.451613 397.576258c0-108.940387-37.475097-196.211613-85.553548-269.047742l75.511741-75.495226a33.032258 33.032258 0 0 0 0-46.724129l-3.584-3.584a33.032258 33.032258 0 0 0-46.724129 0L130.741677 786.101677a33.032258 33.032258 0 0 0 0 46.724129l3.584 3.584a33.032258 33.032258 0 0 0 46.724129 0l150.098581-150.09858 116.306581 118.56929C474.508387 832.462452 500.025806 846.451613 523.264 846.451613z m-15.690322-82.712774a161.775484 161.775484 0 0 1-10.322581-9.661936l-115.811097-118.073806 126.117161-126.117162 0.016517 253.852904z"  horiz-adv-x="1024" />
      
      <glyph glyph-name="youhao1" unicode="&#58917;" d="M515.303226 846.451613l32.239484-33.461678 2.444387-2.576516 21.239742-22.924387 8.968258-9.876645 4.591484-5.086968 14.187354-15.921548a2401.957161 2401.957161 0 0 0 116.851613-142.468129c104.051613-137.909677 166.135742-256.231226 166.135742-340.69471 0-198.490839-164.500645-359.952516-366.658064-359.952516-202.157419 0-366.658065 161.461677-366.658065 359.952516 0 81.259355 57.476129 193.899355 154.54142 325.153033l11.594322 15.525161c36.847484 48.85471 76.634839 96.949677 116.851613 142.468129l14.187355 15.921548 13.543226 14.963613 15.838968 17.143742 12.15587 12.899097L515.303226 846.451613z m0-95.793548l-7.151484-7.729549-12.998194-14.369032-14.005677-15.706839a2332.308645 2332.308645 0 0 1-113.44929-138.256516l-11.396129-15.277419-10.785033-14.748904C259.105032 425.158194 214.709677 331.19793500000003 214.709677 273.44103199999995c0-161.709419 134.639484-293.888 300.593549-293.888 165.970581 0 300.593548 132.162065 300.593548 293.888 0 60.349935-48.276645 159.710968-141.807484 286.191484l-10.999742 14.699355A2331.218581 2331.218581 0 0 1 549.656774 712.670968l-14.005677 15.706838-12.882581 14.220388L515.303226 750.658065z m193.932387-501.793033l2.427871-0.842322c16.582194-6.474323 25.533935-24.460387 20.034064-41.372904-14.253419-43.932903-44.213677-81.672258-84.331354-106.314322-5.565935-3.402323-11.891613-5.169548-18.316388-5.169549-11.726452 0-22.726194 5.780645-29.134451 15.657291a33.147871 33.147871 0 0 0 10.768516 46.410322 128.924903 128.924903 0 0 1 55.362064 69.731097c5.731097 17.688774 25.054968 27.466323 43.189678 21.900387z"  horiz-adv-x="1024" />
      
      <glyph glyph-name="shengyin" unicode="&#58918;" d="M523.280516 846.451613C548.550194 846.451613 578.064516 828.878452 578.064516 779.47871v-790.494968C578.064516-60.812387 548.64929-78.451613 523.47871-78.451613c-23.073032 0-48.623484 14.12129-75.924645 41.934452L246.371097 168.629677H155.251613c-58.285419 0-105.703226 48.359226-105.703226 107.800775V492.015484c0 59.425032 47.417806 107.784258 105.703226 107.784258h91.119484L447.454968 804.880516C474.508387 832.462452 500.025806 846.451613 523.264 846.451613z m-15.690322-82.712774a161.775484 161.775484 0 0 1-10.322581-9.661936l-211.406452-215.585032a34.799484 34.799484 0 0 0-24.906322-10.53729H155.251613c-19.406452 0-35.228903-16.136258-35.228903-35.922581v-215.585032c0-19.835871 15.822452-35.939097 35.228903-35.939097h105.703226c9.331613 0 18.332903-3.765677 24.906322-10.520774l211.489033-215.700645c3.732645-3.765677 7.151484-6.969806 10.24-9.628904V763.738839z m313.707354-11.974194C896.990968 664.344774 974.451613 554.297806 974.451613 400.516129s-77.444129-263.861677-153.154065-351.232a34.799484 34.799484 0 0 0-49.581419-3.303226 35.856516 35.856516 0 0 0-3.270194 50.176c70.523871 81.374968 135.729548 174.509419 135.729549 304.359226s-65.205677 223.000774-135.729549 304.326194a35.906065 35.906065 0 0 0 3.270194 50.209032 34.849032 34.849032 0 0 0 49.581419-3.28671z m-127.306322-102.152258c5.995355-8.307613 12.188903-16.417032 18.266839-24.394322C751.847226 573.307871 792.774194 519.663484 792.774194 416.999226c0-99.427097-45.056-160.074323-84.810323-213.619613l-13.972645-18.993548a36.665806 36.665806 0 0 0-29.795097-15.095742c-7.399226 0-14.864516 2.213161-21.338839 6.821161a36.153806 36.153806 0 0 0-8.373677 50.671484l14.484645 19.687226c37.888 50.919226 70.606452 94.967742 70.606452 170.529032 0 78.286452-28.985806 116.306581-65.701162 164.401548a1258.496 1258.496 0 0 0-19.356903 25.847742 36.120774 36.120774 0 0 0 8.373678 50.671484 36.748387 36.748387 0 0 0 51.100903-8.307613z"  horiz-adv-x="1024" />
      
      <glyph glyph-name="youhao2" unicode="&#58919;" d="M653.080774 846.451613c10.45471 0 20.314839-5.053935 26.756129-13.675355 2.972903-3.996903 73.645419-98.997677 145.507097-216.196129 42.512516-69.301677 76.469677-131.848258 100.913548-185.922064C958.695226 358.978065 974.451613 302.773677 974.451613 258.840774c0-90.095484-33.412129-174.790194-94.125419-238.492903C819.629419-43.387871 738.931613-78.451613 653.080774-78.451613c-85.834323 0-166.532129 35.080258-227.245419 98.782968-60.680258 63.719226-94.108903 148.413935-94.108903 238.509419 0 43.932903 15.756387 100.13729 48.177548 171.817291 24.460387 54.05729 58.417548 116.603871 100.913548 185.922064 71.878194 117.198452 142.534194 212.215742 145.507097 216.196129 6.44129 8.637935 16.317935 13.675355 26.756129 13.675355z m0-94.653936c-27.202065-38.366968-71.514839-102.664258-115.398193-174.245161-89.005419-145.209806-138.008774-258.394839-138.008775-318.711742 0-146.663226 113.680516-265.975742 253.406968-265.975742 139.742968 0 253.423484 119.312516 253.423484 265.975742 0 60.382968-49.102452 173.716645-138.289548 319.141161-43.833806 71.514839-87.981419 135.564387-115.11742 173.815742zM828.614194 207.013161l1.816774-0.660645a25.996387 25.996387 0 0 0 14.914064-31.876129 150.627097 150.627097 0 0 0-62.794322-81.953032 25.434839 25.434839 0 0 0-35.344516 8.092903 26.062452 26.062452 0 0 0 8.026838 35.773936 98.865548 98.865548 0 0 1 41.224258 53.743483 25.6 25.6 0 0 0 32.156904 16.879484zM272.218839 732.870194c10.718968 0 20.826839-5.070452 27.449806-13.708388 1.767226-2.34529 44.098065-57.938581 89.071484-128.445935 10.53729-16.516129 6.011871-38.680774-10.091355-49.482323a34.320516 34.320516 0 0 0-48.243613 10.355613 2035.332129 2035.332129 0 0 1-58.186322 86.016 1996.221935 1996.221935 0 0 1-64.908387-96.619355C127.834839 414.224516 119.246452 361.472 119.246452 344.658581c0-86.511484 68.641032-156.903226 152.988903-156.903226 19.24129 0 34.849032-15.987613 34.849032-35.724387 0-19.75329-15.591226-35.757419-34.849032-35.75742C149.437935 116.273548 49.548387 218.706581 49.548387 344.642065c0 51.811097 32.536774 128.825806 99.460129 235.470451a2057.232516 2057.232516 0 0 0 95.793549 139.04929 34.51871 34.51871 0 0 0 27.416774 13.708388z"  horiz-adv-x="1024" />
      
      <glyph glyph-name="fanhui1" unicode="&#58920;" d="M425.25729 385.536l260.954839 248.121806a42.941935 42.941935 0 0 1-59.193806 62.232775L333.757935 417.06529a42.941935 42.941935 0 0 1-0.396387-61.852903L626.621935 69.086968a42.941935 42.941935 0 0 1 59.986581 61.473032L425.25729 385.536z"  horiz-adv-x="1024" />
      
      <glyph glyph-name="baigonglijiasu1" unicode="&#58921;" d="M398.963613 284.60593500000004L283.086452-34.13883899999996c-12.07329-33.197419 29.39871-59.623226 54.387613-34.650838l561.251096 560.838193c20.810323 20.810323 6.077935 56.386065-23.353806 56.386065H577.767226a33.032258 33.032258 0 1 1 0-66.064516H795.581935L395.99071 83.09264499999995l81.176774 223.248516a33.032258 33.032258 0 0 1-31.050323 44.329291H228.335484L667.367226 790.065548a33.032258 33.032258 0 0 1-46.740645 46.707613L125.274839 340.97548400000005C104.481032 320.165161 119.246452 284.60593500000004 148.645161 284.60593500000004h250.318452z"  horiz-adv-x="1024" />
      
      <glyph glyph-name="fenxiang1" unicode="&#58922;" d="M425.637161 558.872774l0.016516 106.19871c0 77.790968 90.805677 121.690839 155.697549 78.435097l3.385806-2.361807 1.701162-1.288258 349.233548-280.295226c49.862194-36.797935 51.92671-108.296258 3.831742-148.26529l-2.77471-2.147097-351.364129-281.930322c-63.966968-47.186581-155.648 11.148387-159.611871 88.724645l-0.099097 4.062968v82.861419l-10.652903-1.040516-11.115355-1.255226-13.60929-1.783742-15.293935-2.34529-14.203871-2.526968-9.612388-1.899355-12.387096-2.725161c-75.742968-17.589677-149.322323-67.303226-178.588904-124.300387l-3.633548-7.38271C126.728258 0.396387 49.548387 21.982968 49.548387 85.834323c0 32.98271 2.807742 66.328774 8.439742 99.575742l2.427871 13.262451 2.642581 12.882581C102.234839 391.696516 229.409032 521.860129 418.254452 557.518452l7.382709 1.32129z m116.620387 131.154581c-21.966452 12.254968-50.539355-2.378323-50.539354-24.955871v-134.738581a33.032258 33.032258 0 0 0-29.117936-32.784516C282.32671 475.94529 163.427097 362.165677 127.686194 197.863226l-2.411355-11.759484-2.213162-12.139355a529.176774 529.176774 0 0 1-6.276129-53.330581c44.378839 63.983484 124.498581 113.812645 207.409549 133.070452l17.573161 3.79871 9.232516 1.783742 13.146839 2.312258 16.962064 2.593032 14.814968 1.948903 12.155871 1.370839 11.776 1.156129 11.363097 0.924903 10.96671 0.759742 14.748903 0.792774a33.032258 33.032258 0 0 0 34.799484-32.999225l-0.033033-117.314065 0.049549-2.378323c1.453419-28.37471 36.963097-50.952258 53.347097-38.912L895.669677 360.910452l2.312258 1.800258c13.724903 11.396129 13.824 30.521806-0.478967 42.79329L545.924129 687.665548l-1.486452 1.057033-2.180129 1.32129z"  horiz-adv-x="1024" />
      
      <glyph glyph-name="gongshuai" unicode="&#58923;" d="M512 846.451613c255.405419 0 462.451613-207.046194 462.451613-462.451613S767.405419-78.45161299999995 512-78.45161299999995 49.548387 128.59458099999995 49.548387 384 256.594581 846.451613 512 846.451613z m0-66.064516C293.07871 780.387097 115.612903 602.92129 115.612903 384s177.465806-396.387097 396.387097-396.387097 396.387097 177.465806 396.387097 396.387097S730.92129 780.387097 512 780.387097zM332.122839 565.677419a33.032258 33.032258 0 0 0 32.090838-25.236645l54.618839-224.916645 57.575226 225.296516A33.032258 33.032258 0 0 0 508.416 565.677419h17.061161a33.032258 33.032258 0 0 0 32.008258-24.856774l57.575226-225.296516 54.618839 224.916645A33.032258 33.032258 0 0 0 701.786839 565.677419h12.684387a29.217032 29.217032 0 0 0 28.110451-37.194322l-85.80129-302.146065A33.032258 33.032258 0 0 0 625.003355 202.322581h-19.059613a33.032258 33.032258 0 0 0-32.008258 24.87329L517.169548 450.064516 459.974194 227.14632300000005A33.032258 33.032258 0 0 0 427.982452 202.322581h-19.555097a33.032258 33.032258 0 0 0-31.777032 24.047484l-85.371871 302.113032A29.233548 29.233548 0 0 0 319.438452 565.677419h12.684387z"  horiz-adv-x="1024" />
      
      <glyph glyph-name="gengduo1" unicode="&#58924;" d="M512 384m-115.612903 0a115.612903 115.612903 0 1 1 231.225806 0 115.612903 115.612903 0 1 1-231.225806 0ZM850.580645 384m-74.32258 0a74.322581 74.322581 0 1 1 148.645161 0 74.322581 74.322581 0 1 1-148.645161 0ZM173.419355 384m-74.322581 0a74.322581 74.322581 0 1 1 148.645161 0 74.322581 74.322581 0 1 1-148.645161 0Z"  horiz-adv-x="1024" />
      
      <glyph glyph-name="dianchirongliang1" unicode="&#58925;" d="M710.193548 747.354839a132.129032 132.129032 0 0 0 132.129033-132.129033v-561.548387a132.129032 132.129032 0 0 0-132.129033-132.129032H313.806452a132.129032 132.129032 0 0 0-132.129033 132.129032V615.225806a132.129032 132.129032 0 0 0 132.129033 132.129033h396.387096z m0-66.064516H313.806452a66.064516 66.064516 0 0 1-66.064517-66.064517v-561.548387a66.064516 66.064516 0 0 1 66.064517-66.064516h396.387096a66.064516 66.064516 0 0 1 66.064517 66.064516V615.225806a66.064516 66.064516 0 0 1-66.064517 66.064517zM487.390968 497.036387a33.032258 33.032258 0 1 0 59.887484-27.879226l-49.531871-106.396903H578.064516a33.032258 33.032258 0 0 0 29.729032-47.417806l-69.71458-143.938065a33.032258 33.032258 0 1 0-59.458065 28.804129l46.740645 96.487226H445.935484a33.032258 33.032258 0 0 0-29.943742 46.988387zM578.064516 846.451613a66.064516 66.064516 0 0 0 65.981936-62.76129L644.129032 780.387097H379.870968a66.064516 66.064516 0 0 0 66.064516 66.064516h132.129032z"  horiz-adv-x="1024" />
      
      <glyph glyph-name="canshupeizhi" unicode="&#58926;" d="M743.225806 218.83871a33.032258 33.032258 0 0 0 33.032259-33.032258v-66.064517h165.16129a33.032258 33.032258 0 1 0 0-66.064516H776.258065v-66.064516a33.032258 33.032258 0 1 0-66.064517 0V185.806452a33.032258 33.032258 0 0 0 33.032258 33.032258z m-132.129032-99.096775a33.032258 33.032258 0 1 0 0-66.064516H82.580645a33.032258 33.032258 0 1 0 0 66.064516h528.516129zM280.774194 516.129032a33.032258 33.032258 0 0 0 33.032258-33.032258v-198.193548a33.032258 33.032258 0 1 0-66.064517 0v66.064516H82.580645a33.032258 33.032258 0 1 0 0 66.064516h165.16129v66.064516a33.032258 33.032258 0 0 0 33.032259 33.032258z m660.645161-99.096774a33.032258 33.032258 0 1 0 0-66.064516H412.903226a33.032258 33.032258 0 1 0 0 66.064516h528.516129zM743.225806 813.419355a33.032258 33.032258 0 0 0 33.032259-33.032258v-66.064516h165.16129a33.032258 33.032258 0 1 0 0-66.064516H776.258065v-66.064517a33.032258 33.032258 0 1 0-66.064517 0V780.387097a33.032258 33.032258 0 0 0 33.032258 33.032258z m-132.129032-99.096774a33.032258 33.032258 0 1 0 0-66.064516H82.580645a33.032258 33.032258 0 1 0 0 66.064516h528.516129z"  horiz-adv-x="1024" />
      
      <glyph glyph-name="gouwuche1" unicode="&#58927;" d="M280.774194 53.677419a66.064516 66.064516 0 1 0 0-132.129032 66.064516 66.064516 0 0 0 0 132.129032z m528.516129 0a66.064516 66.064516 0 1 0 0-132.129032 66.064516 66.064516 0 0 0 0 132.129032zM41.835355 820.636903a33.032258 33.032258 0 0 0 38.18529 26.921291l89.038452-15.409549a33.032258 33.032258 0 0 0 27.235097-29.184l10.603354-103.192774H878.327742c55.097806 0 97.379097-48.838194 89.467871-103.589161L907.379613 196.707097a110.261677 110.261677 0 0 0-109.105548-94.472258H301.402839c-57.344 0-105.075613 43.916387-109.78271 100.418064L133.12 771.303226l-64.379871 11.148387a33.032258 33.032258 0 0 0-26.92129 38.18529zM878.327742 633.723871H213.685677l43.701678-424.926968a44.131097 44.131097 0 0 1 44.015484-40.464516h496.871226a44.263226 44.263226 0 0 1 43.767741 38.086194l60.399484 399.44258a24.36129 24.36129 0 0 1-24.113548 27.86271z"  horiz-adv-x="1024" />
      
      <glyph glyph-name="niuju" unicode="&#58928;" d="M512 846.451613c255.405419 0 462.451613-207.046194 462.451613-462.451613S767.405419-78.45161299999995 512-78.45161299999995 49.548387 128.59458099999995 49.548387 384 256.594581 846.451613 512 846.451613z m0-66.064516C293.07871 780.387097 115.612903 602.92129 115.612903 384s177.465806-396.387097 396.387097-396.387097 396.387097 177.465806 396.387097 396.387097S730.92129 780.387097 512 780.387097zM198.755097 482.270968c0 30.901677 38.647742 44.890839 58.417548 21.157161l106.743742-128.099097V482.270968a33.032258 33.032258 0 1 0 66.064516 0v-198.193549c0-30.885161-38.631226-44.890839-58.401032-21.140645l-106.760258 128.099097v-106.958452a33.032258 33.032258 0 1 0-66.064516 0zM743.225806 450.064516a82.580645 82.580645 0 0 0 82.580646-82.580645v-82.580645a33.032258 33.032258 0 1 0-66.064517 0v82.580645a16.516129 16.516129 0 0 1-33.032258 0v-82.580645a33.032258 33.032258 0 0 0-30.554838-32.949678L693.677419 251.87096799999995a33.032258 33.032258 0 0 0-32.949677 30.554838L660.645161 284.903226v82.580645a16.516129 16.516129 0 0 1-32.916645 1.932387L627.612903 367.483871v-82.580645a33.032258 33.032258 0 0 0-65.981935-2.47742L561.548387 284.903226v82.580645a82.580645 82.580645 0 0 0 132.145548 66.064516c13.774452 10.372129 30.93471 16.516129 49.531871 16.516129z m-247.741935-49.548387a33.032258 33.032258 0 1 0 0-66.064516 33.032258 33.032258 0 0 0 0 66.064516z"  horiz-adv-x="1024" />
      
      <glyph glyph-name="kuaichong1" unicode="&#58929;" d="M578.064516 846.451613a132.129032 132.129032 0 0 0 132.129032-132.129032v-181.875613h33.098323A99.096774 99.096774 0 0 0 842.322581 437.066323l0.066064-3.716129V186.301935a32.98271 32.98271 0 0 1 65.948903 0V568.072258a66.064516 66.064516 0 0 1-27.648 53.76l-68.987871 49.284129a33.032258 33.032258 0 1 0 38.416517 53.743484l68.971354-49.284129a132.129032 132.129032 0 0 0 55.329033-107.503484v-381.753806a99.047226 99.047226 0 0 0-198.094452 0V433.350194a33.032258 33.032258 0 0 1-33.032258 33.032258H710.193548V-12.387097h33.032258a33.032258 33.032258 0 1 0 0-66.064516H82.580645a33.032258 33.032258 0 1 0 0 66.064516h33.032258V714.322581a132.129032 132.129032 0 0 0 132.129032 132.129032h330.322581z m0-66.064516H247.741935a66.064516 66.064516 0 0 1-66.064516-66.064516v-726.709678h462.451613V499.41471 714.322581a66.064516 66.064516 0 0 1-66.064516 66.064516zM388.954839 414.455742a33.032258 33.032258 0 0 0 59.887484-27.879226l-33.676388-72.307613h50.952259a33.032258 33.032258 0 0 0 29.729032-47.434322l-54.222452-111.946323a33.032258 33.032258 0 0 0-59.458064 28.804129l31.248516 64.512H363.354839a33.032258 33.032258 0 0 0-29.943742 46.971871zM512 615.225806a33.032258 33.032258 0 1 0 0-66.064516H313.806452a33.032258 33.032258 0 1 0 0 66.064516h198.193548z"  horiz-adv-x="1024" />
      
      <glyph glyph-name="guanbi1" unicode="&#58930;" d="M158.323613 737.676387a33.032258 33.032258 0 0 0 46.707613 0L512 430.740645 818.968774 737.676387a33.032258 33.032258 0 0 0 46.707613-46.707613L558.740645 384l306.952258-306.968774a33.032258 33.032258 0 0 0 1.932387-44.610065l-1.932387-2.097548a33.032258 33.032258 0 0 0-46.707613 0L512 337.259355 205.031226 30.323613a33.032258 33.032258 0 0 0-46.707613 46.707613L465.259355 384 158.323613 690.968774a33.032258 33.032258 0 0 0-1.932387 44.610065z"  horiz-adv-x="1024" />
      
      <glyph glyph-name="manchong1" unicode="&#58931;" d="M710.193548-12.387097h33.032258a33.032258 33.032258 0 1 0 0-66.064516H82.580645a33.032258 33.032258 0 1 0 0 66.064516h33.032258V714.322581a132.129032 132.129032 0 0 0 132.129032 132.129032h330.322581a132.129032 132.129032 0 0 0 132.129032-132.129032v-181.875613h33.098323A99.096774 99.096774 0 0 0 842.322581 437.066323l0.066064-3.716129V186.301935a32.98271 32.98271 0 0 1 65.948903 0V568.072258a66.064516 66.064516 0 0 1-27.648 53.76l-68.987871 49.284129a33.032258 33.032258 0 1 0 38.416517 53.743484l68.971354-49.284129a132.129032 132.129032 0 0 0 55.329033-107.503484v-381.753806a99.047226 99.047226 0 0 0-198.094452 0V433.350194a33.032258 33.032258 0 0 1-33.032258 33.032258H710.193548V-12.387097zM578.064516 780.387097H247.741935a66.064516 66.064516 0 0 1-66.064516-66.064516v-726.709678h462.451613V499.41471 714.322581a66.064516 66.064516 0 0 1-66.064516 66.064516z m-66.064516-165.161291a33.032258 33.032258 0 1 0 0-66.064516H313.806452a33.032258 33.032258 0 1 0 0 66.064516h198.193548z"  horiz-adv-x="1024" />
      
      <glyph glyph-name="youhao3" unicode="&#58932;" d="M515.303226 846.451613l32.239484-33.461678 2.444387-2.576516 21.239742-22.924387 8.968258-9.876645 4.591484-5.086968 14.187354-15.921548a2401.957161 2401.957161 0 0 0 116.851613-142.468129c104.051613-137.909677 166.135742-256.231226 166.135742-340.69471 0-198.490839-164.500645-359.952516-366.658064-359.952516-202.157419 0-366.658065 161.461677-366.658065 359.952516 0 81.259355 57.476129 193.899355 154.54142 325.153033l11.594322 15.525161c36.847484 48.85471 76.634839 96.949677 116.851613 142.468129l14.187355 15.921548 13.543226 14.963613 15.838968 17.143742 12.15587 12.899097L515.303226 846.451613z m0-95.793548l-7.151484-7.729549-12.998194-14.369032-14.005677-15.706839a2332.308645 2332.308645 0 0 1-113.44929-138.256516l-11.396129-15.277419-10.785033-14.748904C259.105032 425.158194 214.709677 331.197935 214.709677 273.441032c0-161.709419 134.639484-293.888 300.593549-293.888 165.970581 0 300.593548 132.162065 300.593548 293.888 0 60.349935-48.276645 159.710968-141.807484 286.191484l-10.999742 14.699355A2331.218581 2331.218581 0 0 1 549.656774 712.670968l-14.005677 15.706838-12.882581 14.220388L515.303226 750.658065z m193.932387-501.793033l2.427871-0.842322c16.582194-6.474323 25.533935-24.460387 20.034064-41.372904-14.253419-43.932903-44.213677-81.672258-84.331354-106.314322-5.565935-3.402323-11.891613-5.169548-18.316388-5.169549-11.726452 0-22.726194 5.780645-29.134451 15.657291a33.147871 33.147871 0 0 0 10.768516 46.410322 128.924903 128.924903 0 0 1 55.362064 69.731097c5.731097 17.688774 25.054968 27.466323 43.189678 21.900387z"  horiz-adv-x="1024" />
      
      <glyph glyph-name="jingyin1" unicode="&#58933;" d="M165.177806 599.832774l71.861678-71.861677H155.251613c-19.406452 0-35.228903-16.152774-35.228903-35.939097v-215.585032c0-19.835871 15.822452-35.939097 35.228903-35.939097h105.703226c9.331613 0 18.332903-3.765677 24.906322-10.520774l211.489033-215.700645c3.732645-3.765677 7.151484-6.969806 10.24-9.628904V257.436903l70.457806-70.457806L578.064516-11.016258C578.064516-60.812387 548.64929-78.451613 523.47871-78.451613c-23.073032 0-48.623484 14.12129-75.924645 41.934452L246.371097 168.629677H155.251613c-58.285419 0-105.703226 48.359226-105.703226 107.800775V492.015484c0 59.425032 47.417806 107.784258 105.703226 107.784258l9.926193 0.016516zM523.280516 846.451613C548.550194 846.451613 578.064516 828.878452 578.064516 779.47871l-0.033032-340.050581 121.145806-121.145806c12.271484 26.376258 20.017548 55.791484 20.017549 92.886709 0 77.378065-27.829677 114.952258-63.058581 162.469162A1241.583484 1241.583484 0 0 0 637.522581 599.205161a36.385032 36.385032 0 0 0 8.043354 50.076904 34.634323 34.634323 0 0 0 49.052904-8.225033c5.780645-8.208516 11.709935-16.202323 17.540129-24.113548 38.020129-51.282581 77.295484-104.299355 77.295484-205.757936 0-60.515097-16.417032-106.496-37.937549-145.259354l86.841807-86.825291c38.945032 61.522581 66.890323 131.930839 66.890322 218.508387 0 131.237161-64.21471 225.395613-133.648516 307.579871a36.963097 36.963097 0 0 0 3.220645 50.754065 33.709419 33.709419 0 0 0 48.805162-3.303226C898.196645 664.245677 974.451613 553.009548 974.451613 397.576258c0-108.940387-37.475097-196.211613-85.553548-269.047742l75.511741-75.495226a33.032258 33.032258 0 0 0 0-46.724129l-3.584-3.584a33.032258 33.032258 0 0 0-46.724129 0L130.741677 786.101677a33.032258 33.032258 0 0 0 0 46.724129l3.584 3.584a33.032258 33.032258 0 0 0 46.724129 0l150.098581-150.09858 116.306581 118.56929C474.508387 832.462452 500.025806 846.451613 523.264 846.451613z m-15.690322-82.712774a161.775484 161.775484 0 0 1-10.322581-9.661936l-115.811097-118.073806 126.117161-126.117162 0.016517 253.852904z"  horiz-adv-x="1024" />
      
      <glyph glyph-name="xuhanglicheng2" unicode="&#58934;" d="M512.099097 846.451613l7.76258-0.066065a462.468129 462.468129 0 0 0 277.801291-826.037677 462.402065 462.402065 0 0 0-535.931871-25.220129 462.451613 462.451613 0 0 0-199.019355 498.258581 38.234839 38.234839 0 1 0 74.322581-18.035613 385.981935 385.981935 0 0 1 597.553548-406.676645 385.981935 385.981935 0 0 1-175.665548 698.467096l-8.588388 0.957936v-101.29342c-0.016516-18.927484-13.873548-35.014194-32.817548-37.821935l-5.41729-0.396387c-18.944 0-35.014194 13.873548-37.821936 32.801032l-0.412903 5.41729V808.216774A38.251355 38.251355 0 0 0 512.099097 846.451613zM297.290323 598.709677l238.625032-150.230709c7.300129-2.972903 13.989161-7.184516 19.769806-12.453162h0.115613l2.923355-1.849806-0.495484-0.561548a67.749161 67.749161 0 1 0-95.859613-95.826581l-0.445935-0.462452-1.915871 3.088516a67.930839 67.930839 0 0 0-12.354065 19.654194L297.290323 598.709677z"  horiz-adv-x="1024" />
      
      </font>
</defs>
</svg>
